<?xml version="1.0" standalone="no"?>
<!DOCTYPE svg PUBLIC "-//W3C//DTD SVG 1.1//EN" "http://www.w3.org/Graphics/SVG/1.1/DTD/svg11.dtd" >
<svg>
<metadata>
Created by FontForge 20090914 at Wed Sep 18 08:48:11 2019
 By www-data
&#194;&#169; 2015 Apple Inc. All rights reserved.
</metadata>
<defs>
<font id="SFUIText-Bold" horiz-adv-x="0" >
  <font-face 
    font-family="SF UI Text"
    font-weight="700"
    font-stretch="normal"
    units-per-em="2048"
    panose-1="0 0 8 0 0 0 0 0 0 0"
    ascent="1638"
    descent="-410"
    x-height="1103"
    cap-height="1443"
    bbox="-611 -570 2789 2229"
    underline-thickness="197"
    underline-position="-179"
    unicode-range="U+0020-U+FB02"
  />
<missing-glyph horiz-adv-x="2048" 
d="M100 -494v198h1848v-198h-1848zM100 -45v198h1848v-198h-1848zM100 404v199h1848v-199h-1848zM100 853v199h1848v-199h-1848zM100 1303v198h1848v-198h-1848zM100 1752v198h1848v-198h-1848z" />
    <glyph glyph-name=".notdef" horiz-adv-x="2048" 
d="M100 -494v198h1848v-198h-1848zM100 -45v198h1848v-198h-1848zM100 404v199h1848v-199h-1848zM100 853v199h1848v-199h-1848zM100 1303v198h1848v-198h-1848zM100 1752v198h1848v-198h-1848z" />
    <glyph glyph-name="space" unicode=" " horiz-adv-x="528" 
 />
    <glyph glyph-name="exclam" unicode="!" horiz-adv-x="730" 
d="M205 1443h320l-27 -968h-267zM183 140c0 52.667 16.333 94.332 49 124.999s77 46 133 46c56.667 0 101.167 -15.167 133.5 -45.5s48.5 -72.166 48.5 -125.499c0 -52.667 -16.167 -94.167 -48.5 -124.5s-76.833 -45.5 -133.5 -45.5c-56 0 -100.333 15.167 -133 45.5
s-49 71.833 -49 124.5z" />
    <glyph glyph-name="quotedbl" unicode="&#x22;" horiz-adv-x="1016" 
d="M402 831h-250v612h250v-612zM864 831h-250v612h250v-612z" />
    <glyph glyph-name="numbersign" unicode="#" horiz-adv-x="1360" 
d="M1253 857h-211l-53 -252h209l-41 -223h-210l-77 -382h-222l77 382h-234l-77 -382h-221l77 382h-206l42 223h207l52 252h-205l42 221h206l74 366h221l-74 -366h234l74 366h222l-74 -366h209zM575 876l-59 -291h261l61 291h-263z" />
    <glyph glyph-name="dollar" unicode="$" horiz-adv-x="1415" 
d="M784 -135h-139.997v125c-156.667 8.66699 -279.5 50.334 -368.5 125.001s-133.833 173 -134.5 295h286c3.33301 -49.333 24.833 -91 64.5 -125s90.5 -54.333 152.5 -61v372l-105 25c-120.667 28 -212.334 76.167 -275.001 144.5s-94 154.5 -94 258.5
c0 122.667 41.667 221.667 125 297s199.666 119 348.999 131v136h140v-136c139.333 -13.333 250.666 -57.833 333.999 -133.5s126 -171.167 128 -286.5h-279c-1.33301 45.333 -19 85 -53 119s-77.333 54.667 -130 62v-356l107 -22
c255.333 -54.667 383 -189.334 383 -404.001c0 -127.333 -42.5 -229 -127.5 -305s-205.833 -120.667 -362.5 -134v-127zM990.003 397c0 90.667 -68.667 148.666 -206 173.999v-348c64.667 4 115.167 21.333 151.5 52s54.5 71.334 54.5 122.001zM460.003 1052
c0 -42 15.667 -77.167 47 -105.5s77 -48.5 137 -60.5v328c-54 -2.66699 -98.167 -19.167 -132.5 -49.5s-51.5 -67.833 -51.5 -112.5z" />
    <glyph glyph-name="percent" unicode="%" horiz-adv-x="1701" 
d="M1298 159c35.333 0 63.333 15.666 84 46.999s31 74 31 128c0 54.667 -10.167 97.334 -30.5 128.001s-48.5 46 -84.5 46c-35.333 0 -63.333 -15.5 -84 -46.5s-31 -73.5 -31 -127.5s10.333 -96.667 31 -128s48.667 -47 84 -47zM1298 -33.001
c-100.667 0 -182 33.668 -244 101.001s-93 155.666 -93 264.999s31 197.666 93 264.999s143.333 101 244 101c101.333 0 183 -33.5 245 -100.5s93 -155.5 93 -265.5c0 -109.333 -31 -197.666 -93 -264.999s-143.667 -101 -245 -101zM403 744
c-100.667 0 -182.167 33.667 -244.5 101s-93.5 156 -93.5 266c0 109.333 31.167 197.5 93.5 264.5s143.833 100.5 244.5 100.5c101.333 0 183 -33.5 245 -100.5s93 -155.167 93 -264.5c0 -110 -31 -198.667 -93 -266s-143.667 -101 -245 -101zM506 0h-282l545 756l434 687
h281l-554 -762zM403 936c35.333 0 63.333 15.667 84 47s31 74 31 128c0 54.667 -10.167 97.5 -30.5 128.5s-48.5 46.5 -84.5 46.5c-35.333 0 -63.333 -15.667 -84 -47s-31 -74 -31 -128s10.333 -96.667 31 -128s48.667 -47 84 -47z" />
    <glyph glyph-name="ampersand" unicode="&#x26;" horiz-adv-x="1525" 
d="M1172 0l-111 117.003c-53.333 -45.333 -119.5 -80.833 -198.5 -106.5s-162.5 -38.5 -250.5 -38.5c-153.333 0 -275.833 36.667 -367.5 110s-137.5 171.666 -137.5 294.999c0 82.667 21.5 154.667 64.5 216s111.167 117.666 204.5 168.999
c2 0.666992 12.833 6.5 32.5 17.5s30.167 16.833 31.5 17.5c-65.333 67.333 -111.5 126 -138.5 176s-40.5 101.667 -40.5 155c0 97.333 38.833 177.833 116.5 241.5s175.834 95.5 294.501 95.5c118 0 214.667 -30.833 290 -92.5s113 -141.167 113 -238.5
c0 -74.667 -23.833 -142.667 -71.5 -204s-121.834 -119.333 -222.501 -174l277 -287c34 60 51 147.667 51 263v71h245v-90c0 -176.667 -41 -320.334 -123 -431.001l268 -282h-327zM535 618.003c-103.333 -56 -155 -128 -155 -216c0 -62.667 24.167 -113.5 72.5 -152.5
s111.5 -58.5 189.5 -58.5c52.667 0 103 8.83301 151 26.5s86.333 41.5 115 71.5l-331 349c-10.667 -4 -24.667 -10.667 -42 -20zM646 897.003c66 32.667 113.499 66.0029 142.499 100.003s43.5 72.333 43.5 115c0 45.333 -14.667 82.166 -44 110.499
s-67.666 42.5 -114.999 42.5s-86 -14.333 -116 -43s-45 -65.334 -45 -110.001c0 -32.667 9.83301 -64.834 29.5 -96.501s54.5 -71.167 104.5 -118.5z" />
    <glyph glyph-name="quotesingle" unicode="'" horiz-adv-x="553" 
d="M402 831h-250v612h250v-612z" />
    <glyph glyph-name="parenleft" unicode="(" horiz-adv-x="803" 
d="M705 -277l-275 0.000976562c-86 108 -152.667 238.5 -200 391.5s-71 314.833 -71 485.5c0 171.333 22 323.166 66 455.499s115.333 261.5 214 387.5h269c-72.667 -84 -132.167 -204.833 -178.5 -362.5s-69.5 -317.5 -69.5 -479.5c0 -156.667 19.5 -305 58.5 -445
s101.167 -284.333 186.5 -433z" />
    <glyph glyph-name="parenright" unicode=")" horiz-adv-x="803" 
d="M97 -277c85.333 148.667 147.5 292.999 186.5 432.999s58.5 288.333 58.5 445c0 162.667 -23 322.667 -69 480s-105.333 278 -178 362h269c98.667 -126 170 -255.167 214 -387.5s66 -284.166 66 -455.499c0 -170 -23.667 -331.5 -71 -484.5s-114 -283.833 -200 -392.5
h-276z" />
    <glyph glyph-name="asterisk" unicode="*" horiz-adv-x="1027" 
d="M631 1065l255 -100l-94 -167l-216 162l32 -266h-188l32 266l-216 -162l-94 167l255 100l-255 106l94 169l217 -174l-33 277h188l-33 -277l217 174l94 -169z" />
    <glyph glyph-name="plus" unicode="+" horiz-adv-x="1415" 
d="M835 455v-409h-255v409h-412v258h412v408h255v-408h413v-258h-413z" />
    <glyph glyph-name="comma" unicode="," horiz-adv-x="712" 
d="M384 -388h-233l79 635h288z" />
    <glyph glyph-name="hyphen" unicode="-" horiz-adv-x="992" 
d="M825 446h-657v273h657v-273z" />
    <glyph glyph-name="hyphen" unicode="&#x2011;" horiz-adv-x="992" 
d="M825 446h-657v273h657v-273z" />
    <glyph glyph-name="period" unicode="." horiz-adv-x="712" 
d="M356 -27c-53.333 0 -96.166 16.167 -128.499 48.5s-48.5 74.166 -48.5 125.499c0 50.667 16.167 92.167 48.5 124.5s75.166 48.5 128.499 48.5s96.166 -16 128.499 -48s48.5 -73.667 48.5 -125s-16.167 -93.166 -48.5 -125.499s-75.166 -48.5 -128.499 -48.5z" />
    <glyph glyph-name="slash" unicode="/" horiz-adv-x="772" 
d="M310 -288h-268l414 1731h274z" />
    <glyph glyph-name="zero" unicode="0" horiz-adv-x="1402" 
d="M701 -37c-178.667 0 -318.833 67.167 -420.5 201.5s-152.5 320.833 -152.5 559.5c0 238 50.833 423.5 152.5 556.5s241.834 199.5 420.501 199.5c178 0 318 -66.667 420 -200s153 -319 153 -557s-50.833 -424.167 -152.5 -558.5s-241.834 -201.5 -420.501 -201.5z
M701.001 209c84 0 149.499 44.167 196.499 132.5s70.5 215.833 70.5 382.5c0 165.333 -23.5 291.5 -70.5 378.5s-112.5 130.5 -196.5 130.5c-83.333 0 -148.666 -43.667 -195.999 -131s-71 -213.333 -71 -378c0 -166 23.5 -293.333 70.5 -382s112.5 -133 196.5 -133z" />
    <glyph glyph-name="one" unicode="1" horiz-adv-x="1051" 
d="M495 0v1149h-18l-354 -244v281l373 257h301v-1443h-302z" />
    <glyph glyph-name="two" unicode="2" horiz-adv-x="1318" 
d="M129 1011c0 139.333 48.667 252.336 146 339.003s224 130 380 130c150.667 0 273.5 -39.167 368.5 -117.5s142.5 -179.5 142.5 -303.5c0 -78.667 -24.667 -156.834 -74 -234.501s-136.333 -175.167 -261 -292.5l-276 -263v-18h632v-251h-1041v211l471 461
c101.333 98.667 169 172.667 203 222s51 97.666 51 144.999c0 58 -21.167 105.5 -63.5 142.5s-96.5 55.5 -162.5 55.5c-70 0 -126.833 -20.833 -170.5 -62.5s-65.5 -95.834 -65.5 -162.501v-6h-280v5z" />
    <glyph glyph-name="three" unicode="3" horiz-adv-x="1370" 
d="M498 626l0.00390625 225h176c68.667 0 124.167 18.333 166.5 55s63.5 84.334 63.5 143.001c0 58 -20.833 104.167 -62.5 138.5s-97.834 51.5 -168.501 51.5c-70 0 -126.667 -18.333 -170 -55s-67 -86.334 -71 -149.001h-279c5.33301 136.667 55.333 245 150 325
s220.667 120 378 120c148 0 269.833 -36.5 365.5 -109.5s143.5 -166.167 143.5 -279.5c0 -83.333 -24.167 -155 -72.5 -215s-112.833 -98.333 -193.5 -115v-18c99.333 -11.333 177.833 -47.833 235.5 -109.5s86.5 -139.834 86.5 -234.501
c0 -83.333 -24.167 -158.166 -72.5 -224.499s-115.833 -118.166 -202.5 -155.499s-184 -56 -292 -56c-160.667 0 -291.334 41 -392.001 123s-154.334 191 -161.001 327h289c4.66699 -61.333 31 -109.833 79 -145.5s110.667 -53.5 188 -53.5
c75.333 0 136.833 19.333 184.5 58s71.5 88.667 71.5 150c0 63.333 -23.333 113.166 -70 149.499s-110.334 54.5 -191.001 54.5h-179z" />
    <glyph glyph-name="four" unicode="4" horiz-adv-x="1410" 
d="M820 0v252h-706v267c112.667 212.667 303 520.667 571 924h423v-940h189v-251h-189v-252h-288zM385 510v-16h442v714h-16c-154 -230 -296 -462.667 -426 -698z" />
    <glyph glyph-name="five" unicode="5" horiz-adv-x="1359" 
d="M691 -37c-155.333 0 -282.502 41.832 -381.502 125.499s-150.833 190.834 -155.5 321.501h279c8.66699 -60 37 -108.333 85 -145s106.333 -55 175 -55c78 0 141.167 24 189.5 72s72.5 111 72.5 189c0 79.333 -24.333 143.333 -73 192s-111.334 73 -188.001 73
c-111.333 0 -193.666 -43.333 -246.999 -130h-270l72 837h907v-251h-673l-32 -371h18c65.333 94 167.333 141 306 141c136.667 0 248.834 -45.333 336.501 -136s131.5 -206.667 131.5 -348c0 -153.333 -50.667 -277.5 -152 -372.5s-234.666 -142.5 -399.999 -142.5z" />
    <glyph glyph-name="six" unicode="6" horiz-adv-x="1401" 
d="M722 -37c-104.667 0 -197.833 22.332 -279.5 66.999s-147.167 109.334 -196.5 194.001c-80.667 124 -121 286.333 -121 487c0 239.333 53.333 427.333 160 564s254 205 442 205c137.333 0 254.5 -37 351.5 -111s155.833 -171.333 176.5 -292h-299
c-14 47.333 -41.833 85 -83.5 113s-90.834 42 -147.501 42c-98.667 0 -176.167 -44.167 -232.5 -132.5s-82.833 -207.5 -79.5 -357.5h18c32.667 68 81.167 120.5 145.5 157.5s138.5 55.5 222.5 55.5c136.667 0 250 -45.333 340 -136s135 -205 135 -343
c0 -150 -51.667 -273 -155 -369s-235.666 -144 -396.999 -144zM719.001 210.999c74 0 136.166 24.501 186.499 73.501s75.5 109.833 75.5 182.5c0 73.333 -24.667 134.166 -74 182.499s-111.666 72.5 -186.999 72.5s-137.833 -24 -187.5 -72s-74.5 -108 -74.5 -180
c0 -73.333 25 -134.833 75 -184.5s112 -74.5 186 -74.5z" />
    <glyph glyph-name="seven" unicode="7" horiz-adv-x="1239" 
d="M210 0l615 1177v18h-728v249h1032v-252l-603 -1192h-316z" />
    <glyph glyph-name="eight" unicode="8" horiz-adv-x="1421" 
d="M710 -37c-173.333 0 -313.667 39 -421 117s-161 179.667 -161 305c0 90.667 28.833 169.5 86.5 236.5s134.834 111.167 231.501 132.5v18c-78.667 18 -141.667 55.667 -189 113s-71 124.333 -71 201c0 115.333 49.167 209.833 147.5 283.5s224.166 110.5 377.499 110.5
c152.667 0 278.167 -36.833 376.5 -110.5s147.5 -168.167 147.5 -283.5c0 -76.667 -23.5 -143.5 -70.5 -200.5s-110.167 -94.833 -189.5 -113.5v-18c96 -18 173.167 -60.5 231.5 -127.5s87.5 -146.5 87.5 -238.5c0 -126.667 -54 -229.167 -162 -307.5
s-248.667 -117.5 -422 -117.5zM709.999 191c79.333 0 144 20.667 194 62s75 94.666 75 159.999c0 66 -25 119.667 -75 161s-114.667 62 -194 62s-143.833 -20.667 -193.5 -62s-74.5 -95 -74.5 -161c0 -65.333 24.833 -118.666 74.5 -159.999s114.167 -62 193.5 -62z
M709.999 859c66.667 0 121.167 18.5 163.5 55.5s63.5 84.5 63.5 142.5c0 58.667 -21.167 106.5 -63.5 143.5s-96.833 55.5 -163.5 55.5s-121 -18.5 -163 -55.5s-63 -84.833 -63 -143.5c0 -58 21 -105.5 63 -142.5s96.333 -55.5 163 -55.5z" />
    <glyph glyph-name="nine" unicode="9" horiz-adv-x="1401" 
d="M674 -37c-136.667 0 -253.667 37.166 -351 111.499s-156.333 171.5 -177 291.5h299c14 -47.333 41.833 -85 83.5 -113s90.834 -42 147.501 -42c98.667 0 176.167 44.333 232.5 133s82.833 208 79.5 358h-9h-7h-2c-32.667 -68 -81.167 -120.5 -145.5 -157.5
s-138.5 -55.5 -222.5 -55.5c-137.333 0 -250.833 45.167 -340.5 135.5s-134.5 204.5 -134.5 342.5c0 150 51.667 273 155 369s235.666 144 396.999 144c104 0 196.833 -22.167 278.5 -66.5s147.5 -108.833 197.5 -193.5c80.667 -125.333 121 -287.666 121 -486.999
c0 -240 -53.333 -428.333 -160 -565s-254 -205 -442 -205zM681 721.999c75.333 0 137.834 23.832 187.501 71.499s74.5 107.834 74.5 180.501c0 73.333 -25 134.833 -75 184.5s-112 74.5 -186 74.5s-136.167 -24.667 -186.5 -74s-75.5 -110 -75.5 -182
c0 -74 24.667 -135 74 -183s111.666 -72 186.999 -72z" />
    <glyph glyph-name="colon" unicode=":" horiz-adv-x="712" 
d="M356 -27c-53.333 0 -96.166 16.167 -128.499 48.5s-48.5 74.166 -48.5 125.499c0 50.667 16.167 92.167 48.5 124.5s75.166 48.5 128.499 48.5s96.166 -16 128.499 -48s48.5 -73.667 48.5 -125s-16.167 -93.166 -48.5 -125.499s-75.166 -48.5 -128.499 -48.5zM356 711
c-53.333 0 -96.166 16.167 -128.499 48.5s-48.5 74.166 -48.5 125.499c0 50.667 16.167 92.167 48.5 124.5s75.166 48.5 128.499 48.5s96.166 -16 128.499 -48s48.5 -73.667 48.5 -125s-16.167 -93.166 -48.5 -125.499s-75.166 -48.5 -128.499 -48.5z" />
    <glyph glyph-name="semicolon" unicode=";" horiz-adv-x="712" 
d="M372 -388h-234l79 635h288zM356 711c-53.333 0 -96.166 16.167 -128.499 48.5s-48.5 74.166 -48.5 125.499c0 50.667 16.167 92.167 48.5 124.5s75.166 48.5 128.499 48.5s96.166 -16 128.499 -48s48.5 -73.667 48.5 -125s-16.167 -93.166 -48.5 -125.499
s-75.166 -48.5 -128.499 -48.5z" />
    <glyph glyph-name="less" unicode="&#x3c;" horiz-adv-x="1415" 
d="M1184 279v-301l-953 496v235l953 496v-301l-657 -303v-19z" />
    <glyph glyph-name="equal" unicode="=" horiz-adv-x="1415" 
d="M1244 216h-1073v259h1073v-259zM1244 695h-1073v259h1073v-259z" />
    <glyph glyph-name="greater" unicode="&#x3e;" horiz-adv-x="1415" 
d="M231 279l657 303v19l-657 303v301l953 -496v-235l-953 -496v301z" />
    <glyph glyph-name="question" unicode="?" horiz-adv-x="1141" 
d="M78 1035c2.66699 127.333 46.667 229.334 132 306.001s203.333 115 354 115c142.667 0 257.5 -36 344.5 -108s130.5 -166 130.5 -282c0 -74 -17.667 -138.333 -53 -193s-89 -103 -161 -145c-66.667 -38.667 -111.667 -73.334 -135 -104.001s-35 -70 -35 -118v-53h-265
l-2 55c-6.66699 78.667 4.16602 143.167 32.499 193.5s77.5 96.166 147.5 137.499c65.333 38.667 109.666 73.167 132.999 103.5s35 68.5 35 114.5c0 46.667 -17.5 84.834 -52.5 114.501s-80.833 44.5 -137.5 44.5c-57.333 0 -103.666 -16.333 -138.999 -49
s-54.666 -76.667 -57.999 -132h-271zM533 -29.999c-56 0 -100.333 15.167 -133 45.5s-49 71.833 -49 124.5s16.333 94.334 49 125.001s77 46 133 46s100.167 -15.333 132.5 -46s48.5 -72.334 48.5 -125.001s-16.167 -94.167 -48.5 -124.5s-76.5 -45.5 -132.5 -45.5z" />
    <glyph glyph-name="at" unicode="@" horiz-adv-x="1899" 
d="M940 837c-52.667 0 -94 -20.1709 -124 -60.5039s-45 -96.166 -45 -167.499s14.833 -127.166 44.5 -167.499s70.834 -60.5 123.501 -60.5c53.333 0 95.666 20.333 126.999 61s47 96.334 47 167.001s-15.5 126.334 -46.5 167.001s-73.167 61 -126.5 61zM972 1450
c158 0 298.167 -31.166 420.5 -93.499s217.333 -149.833 285 -262.5s101.5 -241.667 101.5 -387c0 -159.333 -35.333 -285.333 -106 -378s-166.334 -139 -287.001 -139c-62.667 0 -115.167 14 -157.5 42s-69.166 66 -80.499 114h-18c-42.667 -102 -122.667 -153 -240 -153
c-104 0 -187.667 38.667 -251 116s-95 179.333 -95 306c0 121.333 31 219.666 93 294.999s143 113 243 113c53.333 0 100.666 -12.333 141.999 -37s72 -59.334 92 -104.001h18v119h202v-530c0 -35.333 8.33301 -62.833 25 -82.5s40.334 -29.5 71.001 -29.5
c50.667 0 91 29.833 121 89.5s45 140.167 45 241.5c0 180.667 -57.5 325.5 -172.5 434.5s-267.5 163.5 -457.5 163.5c-193.333 0 -351 -63 -473 -189s-183 -288.667 -183 -488c0 -202.667 62.5 -363.667 187.5 -483s293.833 -179 506.5 -179c120 0 210.667 11 272 33v-163
c-81.333 -24 -177 -36 -287 -36c-172 0 -323.167 34.333 -453.5 103s-231 166 -302 292s-106.5 272 -106.5 438c0 162.667 35.5 307.334 106.5 434.001s170.667 225 299 295s274.833 105 439.5 105z" />
    <glyph glyph-name="A" unicode="A" horiz-adv-x="1500" 
d="M1102 0l-109 344h-507l-111 -344h-303l501 1443h355l501 -1443h-327zM732 1143l-181 -566h378l-179 566h-18z" />
    <glyph glyph-name="B" unicode="B" horiz-adv-x="1420" 
d="M823 0l-647.998 0.00195312v1443h631c139.333 0 248.666 -32 327.999 -96s119 -152 119 -264c0 -76.667 -25 -144.334 -75 -203.001s-112 -93.667 -186 -105v-18c95.333 -7.33301 174.166 -43.333 236.499 -108s93.5 -143.334 93.5 -236.001
c0 -126.667 -44.667 -227.167 -134 -301.5s-211 -111.5 -365 -111.5zM477.002 1212l0.000976562 -367h227c81.333 0 143.666 16 186.999 48s65 77 65 135s-19.833 103.167 -59.5 135.5s-95.5 48.5 -167.5 48.5h-252zM477.003 231.002h269c86.667 0 153 17.833 199 53.5
s69 87.167 69 154.5c0 66 -23.5 116.167 -70.5 150.5s-115.167 51.5 -204.5 51.5h-262v-410z" />
    <glyph glyph-name="C" unicode="C" horiz-adv-x="1518" 
d="M788 -37c-209.333 0 -374.5 67.833 -495.5 203.5s-181.5 320.834 -181.5 555.501s60.5 419.667 181.5 555s286.167 203 495.5 203c170.667 0 314.834 -50.833 432.501 -152.5s182.167 -231.167 193.5 -388.5h-294c-14.667 83.333 -52.167 150 -112.5 200
s-133.5 75 -219.5 75c-113.333 0 -203 -44 -269 -132s-99 -208 -99 -360s33 -272.167 99 -360.5s156 -132.5 270 -132.5c86.667 0 160 23.667 220 71s97.333 110.666 112 189.999h294c-12.667 -156 -76.834 -282.833 -192.501 -380.5s-260.5 -146.5 -434.5 -146.5z" />
    <glyph glyph-name="D" unicode="D" horiz-adv-x="1530" 
d="M175 1444h568c214.667 0 381.167 -62.167 499.5 -186.5s177.5 -299.5 177.5 -525.5c0 -234 -58.833 -414.5 -176.5 -541.5s-284.5 -190.5 -500.5 -190.5h-568v1444zM477 1186l-0.000976562 -927.999h218c134 0 237 40.167 309 120.5s108 196.5 108 348.5
c0 145.333 -36.667 258.166 -110 338.499s-175.666 120.5 -306.999 120.5h-218z" />
    <glyph glyph-name="E" unicode="E" horiz-adv-x="1274" 
d="M1131 258v-258h-956v1443h956v-258h-654v-337h617v-239h-617v-351h654z" />
    <glyph glyph-name="F" unicode="F" horiz-adv-x="1224" 
d="M477 0h-302v1443h945v-258h-643v-376h587v-247h-587v-562z" />
    <glyph glyph-name="G" unicode="G" horiz-adv-x="1557" 
d="M1443 589c0 -192.667 -57.333 -345.165 -172 -457.498s-270.667 -168.5 -468 -168.5c-214.667 0 -383.667 67.667 -507 203s-185 321 -185 557c0 232.667 61.667 417 185 553s290 204 500 204c170.667 0 313.667 -45.333 429 -136s183.666 -211 204.999 -361h-300
c-22.667 73.333 -63 130.166 -121 170.499s-129 60.5 -213 60.5c-116.667 0 -208.5 -43.5 -275.5 -130.5s-100.5 -206.167 -100.5 -357.5c0 -154 34.833 -275.333 104.5 -364s164.167 -133 283.5 -133c98.667 0 179.334 26.667 242.001 80s95.667 123.666 99 210.999l1 26
h-313v227h606v-184z" />
    <glyph glyph-name="H" unicode="H" horiz-adv-x="1604" 
d="M1429 0h-302v603h-650v-603h-302v1443h302v-582h650v582h302v-1443z" />
    <glyph glyph-name="I" unicode="I" horiz-adv-x="652" 
d="M477 0h-302v1443h302v-1443z" />
    <glyph glyph-name="J" unicode="J" horiz-adv-x="1231" 
d="M76 424h292c1.33301 -58 19.5 -104.333 54.5 -139s81.5 -52 139.5 -52c62 0 109.5 18.5 142.5 55.5s49.5 90.833 49.5 161.5v993h302v-995c0 -154.667 -43.167 -274.167 -129.5 -358.5s-206.5 -126.5 -360.5 -126.5c-148.667 0 -267.5 41.667 -356.5 125
s-133.5 195.333 -133.5 336z" />
    <glyph glyph-name="K" unicode="K" horiz-adv-x="1453" 
d="M477 0h-302v1443h302v-643h18l533 643h336l-526 -633l563 -810h-362l-419 604l-143 -169v-435z" />
    <glyph glyph-name="L" unicode="L" horiz-adv-x="1218" 
d="M1119 263v-263h-944v1443h302v-1180h642z" />
    <glyph glyph-name="M" unicode="M" horiz-adv-x="1878" 
d="M455 0h-280v1443h356l399 -970h18l400 970h355v-1443h-280v965h-16l-367 -882h-201l-368 882h-16v-965z" />
    <glyph glyph-name="N" unicode="N" horiz-adv-x="1573" 
d="M464 0h-289v1443h252l664 -899h18v899h289v-1443h-250l-666 903h-18v-903z" />
    <glyph glyph-name="O" unicode="O" horiz-adv-x="1610" 
d="M806 1480c213.333 0 382.166 -68 506.499 -204s186.5 -320.667 186.5 -554c0 -234 -62.167 -419 -186.5 -555s-293.166 -204 -506.499 -204c-214 0 -383.333 68 -508 204s-187 321 -187 555c0 233.333 62.667 418 188 554s294.333 204 507 204zM806 1215
c-117.333 0 -211 -44.5 -281 -133.5s-105 -208.833 -105 -359.5s34.833 -270.667 104.5 -360s163.5 -134 281.5 -134c117.333 0 210.833 44.667 280.5 134s104.5 209.333 104.5 360s-34.833 270.5 -104.5 359.5s-163.167 133.5 -280.5 133.5z" />
    <glyph glyph-name="P" unicode="P" horiz-adv-x="1380" 
d="M175 1443h602c148.667 0 269.167 -45.833 361.5 -137.5s138.5 -212.167 138.5 -361.5c0 -148 -47.667 -267.667 -143 -359s-219.333 -137 -372 -137h-285v-448h-302v1443zM477 1195l-0.000976562 -501.999h219c87.333 0 154.833 21.5 202.5 64.5s71.5 104.833 71.5 185.5
c0 81.333 -23.667 143.666 -71 186.999s-114.666 65 -201.999 65h-220z" />
    <glyph glyph-name="Q" unicode="Q" horiz-adv-x="1610" 
d="M1451 -141l-292.002 -0.000976562l-100 142c-77.333 -25.333 -161.666 -38 -252.999 -38c-214 0 -383.333 67.833 -508 203.5s-187 320.834 -187 555.501c0 233.333 62.667 418 188 554s294.333 204 507 204s381.334 -68 506.001 -204s187 -320.667 187 -554
c0 -129.333 -19.5 -244.5 -58.5 -345.5s-95.167 -182.833 -168.5 -245.5zM806.998 227.999c32.667 0 67.333 4.33301 104 13l-164 240h274l67 -81c68.667 74 103 181.333 103 322c0 150.667 -35 270.5 -105 359.5s-163.333 133.5 -280 133.5
c-117.333 0 -211 -44.5 -281 -133.5s-105 -208.833 -105 -359.5c0 -152 35 -272.333 105 -361s164 -133 282 -133z" />
    <glyph glyph-name="R" unicode="R" horiz-adv-x="1422" 
d="M477 1199v-444h265c76 0 135.167 19.5 177.5 58.5s63.5 93.167 63.5 162.5c0 68.667 -22 123 -66 163s-103.333 60 -178 60h-262zM477 523v-522.999h-302v1443h606c158.667 0 283.667 -41.333 375 -124s137 -195.667 137 -339c0 -93.333 -23.167 -176.833 -69.5 -250.5
s-110.5 -126.834 -192.5 -159.501l304 -570h-342l-269 523h-247z" />
    <glyph glyph-name="S" unicode="S" horiz-adv-x="1383" 
d="M110 401l291.999 0.000976562c6.66699 -58.667 37.334 -105.334 92.001 -140.001s124.667 -52 210 -52c78.667 0 143 17.167 193 51.5s75 78.833 75 133.5c0 46 -19.333 83.333 -58 112s-102.334 52.334 -191.001 71.001l-188 40c-261.333 54.667 -392 192 -392 412
c0 136 50.333 245.167 151 327.5s234.334 123.5 401.001 123.5c158.667 0 289.167 -40.333 391.5 -121s155.833 -185.334 160.5 -314.001h-284c-7.33301 57.333 -35.333 103.333 -84 138s-109.334 52 -182.001 52c-76 0 -136.833 -16.333 -182.5 -49
s-68.5 -76.334 -68.5 -131.001c0 -44.667 18.5 -80.667 55.5 -108s97.833 -50 182.5 -68l174 -37c144.667 -30.667 250 -78.667 316 -144s99 -154 99 -266c0 -145.333 -52.167 -259.833 -156.5 -343.5s-247.166 -125.5 -428.499 -125.5c-172 0 -310 39.333 -414 118
s-158.667 185.334 -164 320.001z" />
    <glyph glyph-name="T" unicode="T" horiz-adv-x="1352" 
d="M827 0h-302v1185h-433v258h1168v-258h-433v-1185z" />
    <glyph glyph-name="U" unicode="U" horiz-adv-x="1564" 
d="M480 1443v-914c0 -92 26.5 -164.667 79.5 -218s127.167 -80 222.5 -80c96 0 170.5 26.667 223.5 80s79.5 126 79.5 218v914h302v-945c0 -160.667 -54.833 -290 -164.5 -388s-256.5 -147 -440.5 -147c-183.333 0 -329.833 49 -439.5 147s-164.5 227.333 -164.5 388v945
h302z" />
    <glyph glyph-name="V" unicode="V" horiz-adv-x="1477" 
d="M925 0h-365l-488 1443h341l328 -1103h18l322 1103h325z" />
    <glyph glyph-name="W" unicode="W" horiz-adv-x="2067" 
d="M1025 955l-270 -955h-285l-382 1443h314l225 -1017h16l263 1017h255l268 -1017h16l223 1017h312l-383 -1443h-283l-273 955h-16z" />
    <glyph glyph-name="X" unicode="X" horiz-adv-x="1494" 
d="M88 0l461 727l-458 716h355l301 -505h18l304 505h338l-475 -721l468 -722h-344l-310 489h-18l-314 -489h-326z" />
    <glyph glyph-name="Y" unicode="Y" horiz-adv-x="1451" 
d="M877 0h-302v531l-503 912h327l318 -604h18l317 604h327l-502 -912v-531z" />
    <glyph glyph-name="Z" unicode="Z" horiz-adv-x="1384" 
d="M135 0v204l726 963v18h-709v258h1077v-203l-724 -964v-18h744v-258h-1114z" />
    <glyph glyph-name="bracketleft" unicode="[" horiz-adv-x="848" 
d="M159 1444h575v-223h-294v-1239h306v-222h-587v1684z" />
    <glyph glyph-name="backslash" unicode="\" horiz-adv-x="772" 
d="M462 -288l-420 1731h274l414 -1731h-268z" />
    <glyph glyph-name="bracketright" unicode="]" horiz-adv-x="848" 
d="M689 1444v-1684h-587v222h307v1239h-294v223h574z" />
    <glyph glyph-name="asciicircum" unicode="^" horiz-adv-x="1066" 
d="M524 1182l-182 -410h-257l319 636h259l319 -636h-257l-183 410h-18z" />
    <glyph glyph-name="underscore" unicode="_" horiz-adv-x="945" 
d="M947 -334h-949v227h949v-227z" />
    <glyph glyph-name="grave" unicode="`" horiz-adv-x="1098" 
d="M826 1281h-269l-287 353h309z" />
    <glyph glyph-name="a" unicode="a" horiz-adv-x="1208" 
d="M544 202c67.333 0 123.667 19.001 169 57.001s68 85 68 141v81l-223 -14c-124 -8.66699 -186 -53 -186 -133c0 -40.667 15.833 -72.834 47.5 -96.501s73.167 -35.5 124.5 -35.5zM448.001 -16.999c-106.667 0 -193.499 30.333 -260.499 91s-100.5 141 -100.5 241
c0 99.333 36.833 177.5 110.5 234.5s179.167 89.5 316.5 97.5l267 16v90c0 46 -16 81.5 -48 106.5s-78 37.5 -138 37.5c-108 0 -174.333 -34 -199 -102h-268c9.33301 102 57.5 182.833 144.5 242.5s199.833 89.5 338.5 89.5c145.333 0 257.833 -32.667 337.5 -98
s119.5 -157.333 119.5 -276v-753h-282v144h-18c-28.667 -50.667 -71.334 -90.167 -128.001 -118.5s-120.667 -42.5 -192 -42.5z" />
    <glyph glyph-name="b" unicode="b" horiz-adv-x="1334" 
d="M796 -17c-78 0 -146.831 16.667 -206.498 50s-104.167 80 -133.5 140h-18v-173h-282v1524h291v-597h18c28 60.667 71.333 108.167 130 142.5s125.667 51.5 201 51.5c139.333 0 248.666 -50.333 327.999 -151s119 -240 119 -418c0 -176.667 -39.833 -315.667 -119.5 -417
s-188.834 -152 -327.501 -152zM695.002 877c-76.667 0 -137.498 -29.167 -182.498 -87.5s-67.833 -137.833 -68.5 -238.5c0.666992 -100 23.5 -179.167 68.5 -237.5s105.833 -87.5 182.5 -87.5c77.333 0 138.166 29 182.499 87s66.5 137.667 66.5 239
c0 100.667 -22.333 180 -67 238s-105.334 87 -182.001 87z" />
    <glyph glyph-name="c" unicode="c" horiz-adv-x="1203" 
d="M1122 714h-272c-10 54 -33.833 96.5 -71.5 127.5s-86.834 46.5 -147.501 46.5c-78.667 0 -139.167 -28.667 -181.5 -86s-63.5 -140 -63.5 -248c0 -109.333 21.167 -193.166 63.5 -251.499s102.833 -87.5 181.5 -87.5c60 0 108.833 14.333 146.5 43s61.834 70 72.501 124
h272c-12 -124.667 -61.333 -223.5 -148 -296.5s-201 -109.5 -343 -109.5c-172 0 -304.833 50.167 -398.5 150.5s-140.5 242.833 -140.5 427.5c0 183.333 46.667 324.666 140 423.999s226.333 149 399 149c144 0 258.833 -37 344.5 -111s134.5 -174.667 146.5 -302z" />
    <glyph glyph-name="d" unicode="d" horiz-adv-x="1334" 
d="M541 -17c-138.667 0 -248.168 51 -328.501 153s-120.5 241 -120.5 417c0 175.333 40.167 313.833 120.5 415.5s189.833 152.5 328.5 152.5c74.667 0 141 -17.167 199 -51.5s101.333 -81.833 130 -142.5h17v597h291v-1524h-282v173h-18
c-29.333 -59.333 -73.666 -105.833 -132.999 -139.5s-127.333 -50.5 -204 -50.5zM639.999 877c-77.333 0 -138.167 -28.833 -182.5 -86.5s-66.5 -137.167 -66.5 -238.5c0 -102 22 -181.833 66 -239.5s105 -86.5 183 -86.5s139.167 28.833 183.5 86.5
s66.5 137.167 66.5 238.5c0 100.667 -22.333 180.167 -67 238.5s-105.667 87.5 -183 87.5z" />
    <glyph glyph-name="e" unicode="e" horiz-adv-x="1231" 
d="M623 904c-67.333 0 -122.833 -21.667 -166.5 -65s-68.167 -100.666 -73.5 -171.999h470c-3.33301 73.333 -25.5 131.166 -66.5 173.499s-95.5 63.5 -163.5 63.5zM859 314h271.001c-22 -104.667 -77.833 -187.167 -167.5 -247.5s-201.834 -90.5 -336.501 -90.5
c-168 0 -299 50.167 -393 150.5s-141 240.166 -141 419.499s47.333 321 142 425s224 156 388 156c162.667 0 289.5 -49 380.5 -147s136.5 -234.667 136.5 -410v-89h-757v-15c2 -82 25.5 -146.833 70.5 -194.5s105.5 -71.5 181.5 -71.5c57.333 0 105.333 9.83301 144 29.5
s65.667 47.834 81 84.501z" />
    <glyph glyph-name="f" unicode="f" horiz-adv-x="836" 
d="M231 0l0.000976562 863.001h-178v229h178v108c0 109.333 32.333 189.166 97 239.499s163 75.5 295 75.5c45.333 0 90.666 -3.66699 135.999 -11v-209c-25.333 5.33301 -57 8 -95 8c-51.333 0 -88.833 -10.5 -112.5 -31.5s-35.5 -53.833 -35.5 -98.5v-81h234v-229h-228
v-863h-291z" />
    <glyph glyph-name="g" unicode="g" horiz-adv-x="1322" 
d="M888 561c0 97.333 -22.501 174.333 -67.501 231s-106.5 85 -184.5 85s-138.833 -28.167 -182.5 -84.5s-65.5 -133.166 -65.5 -230.499c0 -98 21.667 -175.167 65 -231.5s104.333 -84.5 183 -84.5s140.334 28.167 185.001 84.5s67 133.166 67 230.499zM631.999 -418
c-145.333 0 -263.499 29.501 -354.499 88.501s-141.167 137.167 -150.5 234.5h288c7.33301 -34 30.666 -61 69.999 -81s90.333 -30 153 -30c78 0 138.667 17.167 182 51.5s65 82.5 65 144.5v204h-18c-62.667 -118.667 -173.334 -178 -332.001 -178
c-137.333 0 -246 49.167 -326 147.5s-120 230.833 -120 397.5c0 171.333 40.5 307.5 121.5 408.5s191.167 151.5 330.5 151.5c74.667 0 141.834 -17.333 201.501 -52s104.167 -82.334 133.5 -143.001h18v177h282v-1099c0 -129.333 -49 -232 -147 -308
s-230.333 -114 -397 -114z" />
    <glyph glyph-name="h" unicode="h" horiz-adv-x="1307" 
d="M156 0v1524h286v-602h18c26 63.333 67.833 112.833 125.5 148.5s126.834 53.5 207.501 53.5c119.333 0 212.166 -36 278.499 -108s99.5 -174 99.5 -306v-710h-291v641c0 76 -17.333 133.667 -52 173s-85 59 -151 59c-72 0 -128.333 -21.833 -169 -65.5
s-61 -101.834 -61 -174.501v-633h-291z" />
    <glyph glyph-name="i" unicode="i" horiz-adv-x="587" 
d="M148 0v1103h291v-1103h-291zM294 1257c-52 0 -93.667 13.667 -125 41s-47 62.666 -47 105.999c0 44 15.667 79.5 47 106.5s73 40.5 125 40.5s93.667 -13.5 125 -40.5s47 -62.5 47 -106.5c0 -43.333 -15.833 -78.666 -47.5 -105.999s-73.167 -41 -124.5 -41z" />
    <glyph glyph-name="j" unicode="j" horiz-adv-x="587" 
d="M439 1103v-1137c0 -112.667 -33 -197.834 -99 -255.501s-163 -86.5 -291 -86.5c-36 0 -62 1.33301 -78 4v223c4 -0.666992 16.333 -1 37 -1c50.667 0 86.667 9.66699 108 29s32 51 32 95v1129h291zM294 1257c-52 0 -93.667 13.667 -125 41s-47 62.666 -47 105.999
c0 44 15.667 79.5 47 106.5s73 40.5 125 40.5s93.667 -13.5 125 -40.5s47 -62.5 47 -106.5c0 -43.333 -15.833 -78.666 -47.5 -105.999s-73.167 -41 -124.5 -41z" />
    <glyph glyph-name="k" unicode="k" horiz-adv-x="1232" 
d="M465 672l369 431h331l-420 -473l449 -630h-345l-322 448l-80 -82v-366h-291v1524h291v-852h18z" />
    <glyph glyph-name="l" unicode="l" horiz-adv-x="603" 
d="M156 0v1524h291v-1524h-291z" />
    <glyph glyph-name="m" unicode="m" horiz-adv-x="1899" 
d="M146 0l0.000976562 1103h282v-180h18c22.667 63.333 61.167 113.166 115.5 149.499s117.5 54.5 189.5 54.5c76.667 0 141.167 -17.833 193.5 -53.5s89.5 -85.834 111.5 -150.501h18c26 62 68.667 111.5 128 148.5s127.333 55.5 204 55.5c110 0 197 -33.333 261 -100
s96 -156.667 96 -270v-757h-291v680c0 130.667 -61.333 196 -184 196c-58.667 0 -105.667 -18.667 -141 -56s-53 -85.666 -53 -144.999v-675h-280v692c0 58 -16 103.167 -48 135.5s-76.667 48.5 -134 48.5c-56.667 0 -103.334 -20 -140.001 -60s-55 -90.667 -55 -152v-664
h-291z" />
    <glyph glyph-name="n" unicode="n" horiz-adv-x="1285" 
d="M146 0v1103h282v-177h18c26 63.333 66.833 112.666 122.5 147.999s123.5 53 203.5 53c122 0 215.333 -35.833 280 -107.5s97 -173.834 97 -306.501v-713h-291v644c0 154.667 -67.667 232 -203 232c-67.333 0 -120.5 -21.833 -159.5 -65.5s-58.5 -101.834 -58.5 -174.501
v-636h-291z" />
    <glyph glyph-name="o" unicode="o" horiz-adv-x="1269" 
d="M635 214c77.333 0 137.333 29.5 180 88.5s64 142.167 64 249.5c0 106 -21.5 188.667 -64.5 248s-102.833 89 -179.5 89c-77.333 0 -137.333 -29.667 -180 -89s-64 -142 -64 -248c0 -107.333 21.167 -190.5 63.5 -249.5s102.5 -88.5 180.5 -88.5zM635 -24
c-169.333 0 -302.168 51 -398.501 153s-144.5 243 -144.5 423c0 178.667 48.5 319.167 145.5 421.5s229.5 153.5 397.5 153.5s300.5 -51.167 397.5 -153.5s145.5 -242.833 145.5 -421.5c0 -180 -48.167 -321 -144.5 -423s-229.166 -153 -398.499 -153z" />
    <glyph glyph-name="p" unicode="p" horiz-adv-x="1324" 
d="M783 1121c140 0 250 -50.334 330 -151.001s120 -240 120 -418c0 -177.333 -39.667 -316.5 -119 -417.5s-188 -151.5 -326 -151.5c-78.667 0 -147 16.333 -205 49s-100.667 78.334 -128 137.001h-18v-535h-291v1469h282v-181h18c30 62 74.667 110.667 134 146
s127 53 203 53zM684 225.999c78.667 0 139.999 28.833 183.999 86.5s66 137.5 66 239.5c0 101.333 -22.167 180.833 -66.5 238.5s-105.166 86.5 -182.499 86.5s-138.5 -29.167 -183.5 -87.5s-67.5 -137.833 -67.5 -238.5s22.333 -180 67 -238s105.667 -87 183 -87z" />
    <glyph glyph-name="q" unicode="q" horiz-adv-x="1324" 
d="M543 1121c74 0 140.833 -17.835 200.5 -53.502s104.167 -84.167 133.5 -145.5h18v181h283v-1469h-292v535h-18c-30 -59.333 -73.333 -105.166 -130 -137.499s-123.667 -48.5 -201 -48.5c-138 0 -246.667 50.833 -326 152.5s-119 240.834 -119 417.501
c0 175.333 40.5 313.833 121.5 415.5s190.833 152.5 329.5 152.5zM638 225.998c78 0 139.5 29 184.5 87s67.5 137.333 67.5 238s-22.5 180.167 -67.5 238.5s-106.167 87.5 -183.5 87.5s-138 -28.833 -182 -86.5s-66 -137.167 -66 -238.5c0 -102 21.833 -181.833 65.5 -239.5
s104.167 -86.5 181.5 -86.5z" />
    <glyph glyph-name="r" unicode="r" horiz-adv-x="891" 
d="M146 0l0.000976562 1103h282v-176h18c14.667 56 48.167 102.333 100.5 139s113.166 55 182.499 55c50 0 88 -4.66699 114 -14v-265c-30.667 12 -76.667 18 -138 18c-80.667 0 -145.5 -22.333 -194.5 -67s-73.5 -105.334 -73.5 -182.001v-611h-291z" />
    <glyph glyph-name="s" unicode="s" horiz-adv-x="1160" 
d="M121 779c0 104.667 42.166 188.836 126.499 252.503s195.166 95.5 332.499 95.5c140 0 249.833 -28.333 329.5 -85s123.5 -137.667 131.5 -243h-269c-7.33301 36 -27.5 64.167 -60.5 84.5s-76.167 30.5 -129.5 30.5c-52.667 0 -96 -10.833 -130 -32.5
s-51 -49.834 -51 -84.501c0 -26.667 12 -48.834 36 -66.501s61.667 -32.167 113 -43.5l207 -45c107.333 -23.333 185.833 -59 235.5 -107s74.5 -113 74.5 -195c0 -109.333 -44.667 -197.333 -134 -264s-206.666 -100 -351.999 -100s-260.333 28.667 -345 86
s-132 139 -142 245h284c23.333 -78.667 93 -118 209 -118c56.667 0 102.667 10.833 138 32.5s53 50.167 53 85.5c0 27.333 -11 49.5 -33 66.5s-57.333 30.833 -106 41.5l-200 45c-107.333 23.333 -187.166 61.166 -239.499 113.499s-78.5 120.833 -78.5 205.5z" />
    <glyph glyph-name="t" unicode="t" horiz-adv-x="845" 
d="M229 1365h291v-273h229v-229h-229v-496c0 -48 11.5 -83.333 34.5 -106s59.167 -34 108.5 -34c32.667 0 61.334 1.33301 86.001 4v-222c-44.667 -8.66699 -93.334 -13 -146.001 -13c-134 0 -229.833 23.333 -287.5 70s-86.5 124 -86.5 232v565h-172v229h172v273z" />
    <glyph glyph-name="u" unicode="u" horiz-adv-x="1290" 
d="M1144 1103v-1103h-282v177h-18c-54.667 -134 -162 -201 -322 -201c-119.333 0 -213.5 36.167 -282.5 108.5s-103.5 172.166 -103.5 299.499v719h291v-644c0 -153.333 67.667 -230 203 -230c71.333 0 126.333 21 165 63s58 100.333 58 175v636h291z" />
    <glyph glyph-name="v" unicode="v" horiz-adv-x="1194" 
d="M51 1103h313l228 -822h18l226 822h307l-381 -1103h-328z" />
    <glyph glyph-name="w" unicode="w" horiz-adv-x="1735" 
d="M1674 1103l-293 -1103h-310l-197 761h-18l-195 -761h-306l-294 1103h295l164 -791h18l193 791h278l194 -791h18l164 791h289z" />
    <glyph glyph-name="x" unicode="x" horiz-adv-x="1190" 
d="M598 360h-18l-205 -360h-309l346 545l-348 558h334l195 -362h18l195 362h318l-346 -545l349 -558h-324z" />
    <glyph glyph-name="y" unicode="y" horiz-adv-x="1223" 
d="M283 -401c-62 0 -98.998 0.999023 -110.998 2.99902v234c6.66699 -1.33301 28.667 -2 66 -2c55.333 0 98.666 9.5 129.999 28.5s53 49.167 65 90.5l10 40l-387 1110h321l232 -836h18l232 836h308l-380 -1120c-46.667 -141.333 -107.834 -240.666 -183.501 -297.999
s-182.5 -86 -320.5 -86z" />
    <glyph glyph-name="z" unicode="z" horiz-adv-x="1160" 
d="M121 0v172l558 681v18h-550v232h898v-192l-526 -661v-18h539v-232h-919z" />
    <glyph glyph-name="braceleft" unicode="{" horiz-adv-x="927" 
d="M371 601c68 -6.66699 119.667 -31.8311 155 -75.498s53 -103.834 53 -180.501v-260c0 -78 15.333 -131.5 46 -160.5s86.667 -43.5 168 -43.5h45v-219h-105c-152 0 -262.167 30.167 -330.5 90.5s-102.5 158.5 -102.5 294.5v218c0 77.333 -12.333 131.166 -37 161.499
s-68.334 45.5 -131.001 45.5v277c62.667 0 106.334 15.167 131.001 45.5s37 84.5 37 162.5v185c0 132.667 34 228.5 102 287.5s178.333 88.5 331 88.5h105v-220h-45c-81.333 0 -137.333 -14.5 -168 -43.5s-46 -82.833 -46 -161.5v-237c0 -73.333 -17 -129.5 -51 -168.5
s-86.333 -61.833 -157 -68.5v-18z" />
    <glyph glyph-name="bar" unicode="|" horiz-adv-x="749" 
d="M508 -289h-267v1732h267v-1732z" />
    <glyph glyph-name="braceright" unicode="}" horiz-adv-x="927" 
d="M556 601l0.00195312 17.9971c-70.667 6.66699 -123 29.5 -157 68.5s-51 95.167 -51 168.5v237c0 78.667 -15.333 132.5 -46 161.5s-86.667 43.5 -168 43.5h-45v220h105c152.667 0 263 -29.5 331 -88.5s102 -154.833 102 -287.5v-185c0 -78 12.167 -132.167 36.5 -162.5
s68.166 -45.5 131.499 -45.5v-277c-62.667 0 -106.334 -15.167 -131.001 -45.5s-37 -84.166 -37 -161.499v-218c0 -136 -34.167 -234.167 -102.5 -294.5s-178.5 -90.5 -330.5 -90.5h-105v219h45c81.333 0 137.333 14.5 168 43.5s46 82.5 46 160.5v260
c0 76.667 17.667 136.834 53 180.501s87 68.834 155 75.501z" />
    <glyph glyph-name="asciitilde" unicode="~" horiz-adv-x="1225" 
d="M566 622c-31.333 30.667 -56.8301 51.832 -76.4971 63.499s-39.834 17.5 -60.501 17.5c-76.667 0 -116.334 -59.333 -119.001 -178h-228c-1.33301 17.333 -2 30 -2 38c0 121.333 28.833 217.333 86.5 288s136.5 106 236.5 106c45.333 0 87.666 -10 126.999 -30
s83.333 -53.667 132 -101c29.333 -28.667 54.166 -49 74.499 -61s40.5 -18 60.5 -18c75.333 0 115 59.333 119 178h227c1.33301 -17.333 2 -30 2 -38c0 -121.333 -28.667 -217.333 -86 -288s-135.666 -106 -234.999 -106c-45.333 0 -87.833 9.83301 -127.5 29.5
s-83.167 52.834 -130.5 99.501z" />
    <glyph glyph-name="nonbreakingspace" unicode="&#xa0;" horiz-adv-x="528" 
 />
    <glyph glyph-name="exclamdown" unicode="&#xa1;" horiz-adv-x="730" 
d="M205 -322l26 969h267l27 -969h-320zM183 982c0 52.667 16.333 94.165 49 124.498s77 45.5 133 45.5c56.667 0 101.167 -15.167 133.5 -45.5s48.5 -71.833 48.5 -124.5c0 -53.333 -16.167 -95.166 -48.5 -125.499s-76.833 -45.5 -133.5 -45.5
c-56 0 -100.333 15.333 -133 46s-49 72.334 -49 125.001z" />
    <glyph glyph-name="cent" unicode="&#xa2;" horiz-adv-x="1415" 
d="M1253 528c-10.667 -106.667 -53.166 -194.831 -127.499 -264.498s-169.5 -113.5 -285.5 -131.5v-184h-242v188c-133.333 26 -240 88.833 -320 188.5s-120 224.834 -120 375.501c0 149.333 40.167 273.666 120.5 372.999s186.833 161.666 319.5 186.999v189h242v-185
c114 -19.333 208.667 -65 284 -137s118.333 -161 129 -267h-272c-14.667 53.333 -44.334 95.666 -89.001 126.999s-97.667 47 -159 47c-81.333 0 -148.5 -30 -201.5 -90s-79.5 -141.333 -79.5 -244c0 -104 26.5 -186.333 79.5 -247s119.833 -91 200.5 -91
c66.667 0 121.667 14.667 165 44s71.333 70 84 122h272z" />
    <glyph glyph-name="sterling" unicode="&#xa3;" horiz-adv-x="1415" 
d="M1264 257l-0.000976562 -256.999h-1124v240c88.667 12.667 161 48.834 217 108.501s84.667 131.5 86 215.5c0 20 -3.66699 42.667 -11 68h-288v213h224c-39.333 95.333 -59 176.333 -59 243c0 124 48.833 220.333 146.5 289s234.834 103 411.501 103
c130 0 240 -11 330 -33v-243c-92 22 -187.667 33 -287 33c-92 0 -164.667 -18.333 -218 -55s-80 -86.334 -80 -149.001c0 -55.333 14 -118 42 -188h417v-213h-354c6.66699 -22 10 -43.667 10 -65c3.33301 -60.667 -10 -117.334 -40 -170.001s-71.667 -93 -125 -121v-19h702z
" />
    <glyph glyph-name="currency" unicode="&#xa4;" horiz-adv-x="1415" 
d="M474 648c0 -63.333 23 -117.833 69 -163.5s101 -68.5 165 -68.5s119.167 22.833 165.5 68.5s69.5 100.167 69.5 163.5s-23.167 118 -69.5 164s-101.5 69 -165.5 69s-119 -23 -165 -69s-69 -100.667 -69 -164zM1248 1021l-146.999 -149
c38.667 -68.667 58 -143.334 58 -224.001c0 -81.333 -19.667 -156 -59 -224l148 -149l-166 -172l-149 150c-68.667 -40.667 -143.667 -61 -225 -61s-156.333 20.333 -225 61l-149 -150l-166 172l148 149c-38.667 70 -58 144.667 -58 224c0 80.667 19.333 155.334 58 224.001
l-148 149l166 172l148 -150c69.333 41.333 144.666 62 225.999 62s156.333 -20.333 225 -61l149 149z" />
    <glyph glyph-name="yen" unicode="&#xa5;" horiz-adv-x="1415" 
d="M1130 206h-271v-206h-302v206h-271v169h271v133h-271v169h195l-427 766h327l318 -604h18l317 604h327l-426 -766h195v-169h-271v-133h271v-169z" />
    <glyph glyph-name="brokenbar" unicode="&#xa6;" horiz-adv-x="749" 
d="M508 773h-267v670h267v-670zM508 -289h-267v669h267v-669z" />
    <glyph glyph-name="section" unicode="&#xa7;" horiz-adv-x="1032" 
d="M464 454l109.001 -37.998c39.333 6 72.333 22.167 99 48.5s40 56.166 40 89.499c0 31.333 -12.333 59.166 -37 83.499s-59.334 42.833 -104.001 55.5l-109 38c-39.333 -6 -72.5 -22.333 -99.5 -49s-40.5 -56.334 -40.5 -89.001c0 -31.333 12.5 -59.166 37.5 -83.499
s59.833 -42.833 104.5 -55.5zM515.001 -285.998c-124.667 0 -227.332 30.8281 -307.999 92.4951s-123.334 142.167 -128.001 241.5h253c4.66699 -36.667 24.5 -66.5 59.5 -89.5s77.5 -34.5 127.5 -34.5c51.333 0 93.166 11.833 125.499 35.5s48.5 54.167 48.5 91.5
c0 28 -11.667 51.833 -35 71.5s-61.333 37.167 -114 52.5l-175 60c-105.333 34 -181.833 74.833 -229.5 122.5s-71.5 107.167 -71.5 178.5c0 62.667 19.167 117.834 57.5 165.501s90.833 81.834 157.5 102.501v18c-71.333 32.667 -123.333 70.834 -156 114.501
s-49 96.834 -49 159.501c0 101.333 40 182.833 120 244.5s186 92.5 318 92.5c122.667 0 223.167 -30 301.5 -90s121.166 -139.667 128.499 -239h-251c-5.33301 35.333 -24.666 64 -57.999 86s-74.333 33 -123 33c-50.667 0 -91.834 -11.667 -123.501 -35
s-47.5 -53.666 -47.5 -90.999c0 -28 11.333 -51.5 34 -70.5s60.334 -36.833 113.001 -53.5l171 -60c106.667 -36.667 184 -78.5 232 -125.5s72 -104.833 72 -173.5c0 -64.667 -21.167 -122.167 -63.5 -172.5s-98.166 -84.833 -167.499 -103.5v-19
c77.333 -30 133.833 -66 169.5 -108s53.5 -95 53.5 -159c0 -100.667 -40.667 -182.167 -122 -244.5s-188 -93.5 -320 -93.5z" />
    <glyph glyph-name="dieresis" unicode="&#xa8;" horiz-adv-x="1176" 
d="M354 1267c-44.667 0 -81.667 14.333 -111 43s-44 65 -44 109s14.5 80.167 43.5 108.5s66.167 42.5 111.5 42.5s82.5 -14.167 111.5 -42.5s43.5 -64.5 43.5 -108.5s-14.667 -80.333 -44 -109s-66.333 -43 -111 -43zM822 1267c-44.667 0 -81.667 14.333 -111 43
s-44 65 -44 109s14.667 80.167 44 108.5s66.333 42.5 111 42.5c45.333 0 82.666 -14.167 111.999 -42.5s44 -64.5 44 -108.5s-14.667 -80.333 -44 -109s-66.666 -43 -111.999 -43z" />
    <glyph glyph-name="copyright" unicode="&#xa9;" horiz-adv-x="1742" 
d="M871 -136c-108 0 -210.665 20.667 -307.998 62s-181 97 -251 167s-125.667 153.667 -167 251s-62 200 -62 308s20.5 210.833 61.5 308.5s96.667 181.5 167 251.5s154.166 125.667 251.499 167s200 62 308 62c108.667 0 211.667 -20.667 309 -62s181.166 -97 251.499 -167
s126 -153.833 167 -251.5s61.5 -200.5 61.5 -308.5s-20.667 -210.667 -62 -308s-97 -181 -167 -251s-153.833 -125.667 -251.5 -167s-200.5 -62 -308.5 -62zM871.002 30c86 0 167.668 16.166 245.001 48.499s143.666 76.333 198.999 132s99.333 121.834 132 198.501
s49 157.667 49 243c0 114.667 -27.5 219.667 -82.5 315s-130.5 170.5 -226.5 225.5s-201.333 82.5 -316 82.5c-86 0 -167.5 -16.333 -244.5 -49s-143.167 -76.667 -198.5 -132s-99.333 -121.5 -132 -198.5s-49 -158.167 -49 -243.5s16.333 -166.333 49 -243
s76.667 -142.667 132 -198s121.5 -99.333 198.5 -132s158.5 -49 244.5 -49zM1238 758.999l-188.001 -0.00195312c-7.33301 38.667 -25.666 69.334 -54.999 92.001s-65 34 -107 34c-56.667 0 -101.167 -20.5 -133.5 -61.5s-48.5 -97.5 -48.5 -169.5
c0 -73.333 16.167 -130.666 48.5 -171.999s76.833 -62 133.5 -62c44 0 80.167 10.5 108.5 31.5s46.166 50.5 53.499 88.5h188c-9.33301 -88 -45.333 -157.333 -108 -208s-143.667 -76 -243 -76c-118 0 -211.167 35.667 -279.5 107s-102.5 168.333 -102.5 291
c0 121.333 34.333 217.5 103 288.5s161.334 106.5 278.001 106.5c97.333 0 178 -26.333 242 -79s100.667 -123 110 -211z" />
    <glyph glyph-name="ordfeminine" unicode="&#xaa;" horiz-adv-x="1031" 
d="M491 693c50 0 91.333 14.667 124 44s49 66.333 49 111v70l-167 -12c-95.333 -6 -143 -41.667 -143 -107c0 -32.667 12.167 -58.5 36.5 -77.5s57.833 -28.5 100.5 -28.5zM392 497c-91.333 0 -164.335 26 -219.002 78s-82 121.333 -82 208c0 84.667 31 151 93 199
s152.333 75.667 271 83l207 11v75c0.666992 33.333 -11.833 59.5 -37.5 78.5s-61.167 28.5 -106.5 28.5c-39.333 0 -71.333 -7.16699 -96 -21.5s-39.667 -34.5 -45 -60.5h-252c6.66699 90 45.834 160.667 117.501 212s166.834 77 285.501 77
c123.333 0 220.333 -28.333 291 -85s106 -134.667 106 -234v-631h-256v113h-18c-22 -40.667 -55.833 -72.667 -101.5 -96s-98.167 -35 -157.5 -35z" />
    <glyph glyph-name="guillemotleft" unicode="&#xab;" horiz-adv-x="1447" 
d="M942 572v-11l347 -410h-276l-344 411v8l349 411h271zM431 572v-11l347 -410h-276l-344 411v8l349 411h271z" />
    <glyph glyph-name="logicalnot" unicode="&#xac;" horiz-adv-x="1415" 
d="M1230 713v-654h-255v396h-790v258h1045z" />
    <glyph glyph-name="registered" unicode="&#xae;" horiz-adv-x="1260" 
d="M630 438c-96 0 -184.667 23.667 -266 71s-145.666 111.666 -192.999 192.999s-71 170.333 -71 267s23.667 185.667 71 267s111.666 145.666 192.999 192.999s170 71 266 71c96.667 0 185.667 -23.667 267 -71s145.5 -111.666 192.5 -192.999s70.5 -170.333 70.5 -267
s-23.5 -185.667 -70.5 -267s-111.167 -145.666 -192.5 -192.999s-170.333 -71 -267 -71zM630 574c110.667 0 204.5 38.5 281.5 115.5s115.5 170.167 115.5 279.5c0 110 -38.5 203.333 -115.5 280s-170.833 115 -281.5 115c-110 0 -203.667 -38.333 -281 -115
s-116 -170 -116 -280c0 -109.333 38.667 -202.5 116 -279.5s171 -115.5 281 -115.5zM546 733l-124.999 0.000976562v487h256c53.333 0 96.666 -14.333 129.999 -43s50 -66.334 50 -113.001c0 -37.333 -9 -69 -27 -95s-43.333 -43.667 -76 -53l127 -183h-149l-111 165h-75
v-165zM546.001 1116v-121h99c52 0 78 20 78 60c0 40.667 -25.333 61 -76 61h-101z" />
    <glyph glyph-name="macron" unicode="&#xaf;" horiz-adv-x="1048" 
d="M892 1316h-735v180h735v-180z" />
    <glyph glyph-name="degree" unicode="&#xb0;" horiz-adv-x="924" 
d="M462 742c-102.667 0 -188.334 34.667 -257.001 104s-103 154.666 -103 255.999s34.333 186.666 103 255.999s154.334 104 257.001 104s188.334 -34.667 257.001 -104s103 -154.666 103 -255.999s-34.333 -186.666 -103 -255.999s-154.334 -104 -257.001 -104zM462 918
c54 0 98 17.5 132 52.5s51 78.833 51 131.5s-17 96.334 -51 131.001s-78 52 -132 52s-97.833 -17.333 -131.5 -52s-50.5 -78.334 -50.5 -131.001s16.833 -96.5 50.5 -131.5s77.5 -52.5 131.5 -52.5z" />
    <glyph glyph-name="plusminus" unicode="&#xb1;" horiz-adv-x="1415" 
d="M1205 71h-997v225h997v-225zM832 650v-234h-249v234h-375v224h375v234h249v-234h375v-224h-375z" />
    <glyph glyph-name="two.sups" unicode="&#xb2;" horiz-adv-x="914" 
d="M80 1530c0 96.667 34.001 174.166 102.001 232.499s158.333 87.5 271 87.5c108.667 0 195.5 -25.667 260.5 -77s97.5 -120 97.5 -206c0 -59.333 -18.167 -115.333 -54.5 -168s-97.833 -111 -184.5 -175l-114 -97v-18h368v-213h-727v189l277 239
c71.333 59.333 118.5 103.333 141.5 132s34.5 57.334 34.5 86.001s-10.333 52.167 -31 70.5s-47.334 27.5 -80.001 27.5c-34.667 0 -62.667 -10 -84 -30s-32 -46.333 -32 -79v-6h-245v5z" />
    <glyph glyph-name="three.sups" unicode="&#xb3;" horiz-adv-x="950" 
d="M354 1278l0.000976562 177.002h113c35.333 0 63.5 8.5 84.5 25.5s31.5 39.833 31.5 68.5c0 26.667 -10.833 48.5 -32.5 65.5s-50.167 25.5 -85.5 25.5c-37.333 0 -67.5 -9.33301 -90.5 -28s-35.5 -44 -37.5 -76h-243c0.666992 94.667 35 170.167 103 226.5
s159 84.5 273 84.5c108 0 195.167 -23.667 261.5 -71s99.5 -109.333 99.5 -186c0 -52.667 -16.167 -97.834 -48.5 -135.501s-74.833 -60.834 -127.5 -69.501v-19c64.667 -5.33301 115.834 -27.333 153.501 -66s56.5 -87.667 56.5 -147
c0 -84.667 -36.5 -153.167 -109.5 -205.5s-168.167 -78.5 -285.5 -78.5c-116.667 0 -209.834 29 -279.501 87s-104.834 135.667 -105.501 233h246c1.33301 -32.667 14.5 -58.5 39.5 -77.5s57.5 -28.5 97.5 -28.5c39.333 0 71 9.16699 95 27.5s36 42.166 36 71.499
c0 30.667 -11.333 54.334 -34 71.001s-54.667 25 -96 25h-115z" />
    <glyph glyph-name="acute" unicode="&#xb4;" horiz-adv-x="1098" 
d="M260 1281l247 353h309l-287 -353h-269z" />
    <glyph glyph-name="mugreek" unicode="&#xb5;" horiz-adv-x="1365" 
d="M146 -366v1469h291v-644c0 -153.333 67 -230 201 -230c64 0 115.833 21.667 155.5 65s59.5 100.333 59.5 171v638h291v-760c0 -46.667 6.66699 -78.834 20 -96.501s36.333 -26.5 69 -26.5c12.667 0 30.667 2.66699 54 8v-221c-40.667 -12 -84 -18 -130 -18
c-77.333 0 -136.833 14.5 -178.5 43.5s-70.834 77.167 -87.501 144.5l-3 14h-19c-29.333 -143.333 -110.666 -215 -243.999 -215c-81.333 0 -138 26 -170 78h-18v-420h-291z" />
    <glyph glyph-name="mugreek" unicode="&#x3bc;" horiz-adv-x="1365" 
d="M146 -366v1469h291v-644c0 -153.333 67 -230 201 -230c64 0 115.833 21.667 155.5 65s59.5 100.333 59.5 171v638h291v-760c0 -46.667 6.66699 -78.834 20 -96.501s36.333 -26.5 69 -26.5c12.667 0 30.667 2.66699 54 8v-221c-40.667 -12 -84 -18 -130 -18
c-77.333 0 -136.833 14.5 -178.5 43.5s-70.834 77.167 -87.501 144.5l-3 14h-19c-29.333 -143.333 -110.666 -215 -243.999 -215c-81.333 0 -138 26 -170 78h-18v-420h-291z" />
    <glyph glyph-name="paragraph" unicode="&#xb6;" horiz-adv-x="1580" 
d="M966 -259h-280v702h-20c-149.333 0 -274 47.667 -374 143s-150 213 -150 353c0 146 49 266.5 147 361.5s224 142.5 378 142.5h299v-1702zM1135 -259v1702h280v-1702h-280z" />
    <glyph glyph-name="periodcentered" unicode="&#xb7;" horiz-adv-x="723" 
d="M362 555c-56 0 -100.5 16.333 -133.5 49s-49.5 76 -49.5 130c0 53.333 16.5 96.333 49.5 129s77.5 49 133.5 49s100.333 -16.333 133 -49s49 -75.667 49 -129c0 -54 -16.333 -97.333 -49 -130s-77 -49 -133 -49z" />
    <glyph glyph-name="cedilla" unicode="&#xb8;" horiz-adv-x="1098" 
d="M405 -241v114.999l55 132h174l-49 -119c63.333 -3.33301 111.833 -20.166 145.5 -50.499s50.5 -72.5 50.5 -126.5c0 -64 -23.333 -114 -70 -150s-112.334 -54 -197.001 -54c-56 0 -105 5.66699 -147 17v135c24.667 -9.33301 63.334 -14 116.001 -14
c74.667 0 112 19.667 112 59c0 19.333 -10.167 33.5 -30.5 42.5s-53.5 13.5 -99.5 13.5h-60z" />
    <glyph glyph-name="one.sups" unicode="&#xb9;" horiz-adv-x="761" 
d="M589 896h-266.998v679h-18c-4.66699 -2.66699 -41.834 -26.667 -111.501 -72s-104.834 -68.333 -105.501 -69v235c60.667 45.333 138 97 232 155h270v-928z" />
    <glyph glyph-name="ordmasculine" unicode="&#xba;" horiz-adv-x="1107" 
d="M553 710c59.333 0 105.17 23.5 137.503 70.5s48.5 113.5 48.5 199.5c0 85.333 -16.333 151.5 -49 198.5s-78.334 70.5 -137.001 70.5s-104.334 -23.667 -137.001 -71s-49 -113.333 -49 -198c0 -86 16.167 -152.5 48.5 -199.5s78.166 -70.5 137.499 -70.5zM553.004 497
c-143.333 0 -255.5 42.668 -336.5 128.001s-121.5 203.666 -121.5 354.999c0 148.667 41 266.167 123 352.5s193.667 129.5 335 129.5c142.667 0 254.667 -42.833 336 -128.5s122 -203.5 122 -353.5c0 -152 -40.333 -270.5 -121 -355.5s-193 -127.5 -337 -127.5z" />
    <glyph glyph-name="guillemotright" unicode="&#xbb;" horiz-adv-x="1447" 
d="M505 572l-347 409h271l349 -411v-8l-344 -411h-276l347 410v11zM1016 572l-347 409h271l349 -411v-8l-344 -411h-276l347 410v11z" />
    <glyph glyph-name="onequarter" unicode="&#xbc;" horiz-adv-x="2242" 
d="M1677 928h367v-588h110v-196h-119v-144h-236v134h-481v214c32.667 66.667 74.5 141.5 125.5 224.5s128.833 201.5 233.5 355.5zM1546 337v-3h254v393h-14c-127.333 -196.667 -207.333 -326.667 -240 -390zM589 515h-266.998v679h-18
c-4.66699 -2.66699 -41.834 -26.667 -111.501 -72s-104.834 -68.333 -105.501 -69v235c60.667 45.333 138 97 232 155h270v-928zM569.002 0l394 749l305 694h274l-399 -742l-300 -701h-274z" />
    <glyph glyph-name="onehalf" unicode="&#xbd;" horiz-adv-x="2243" 
d="M1410 634c0 96.667 34.001 174.166 102.001 232.499s158.333 87.5 271 87.5c108.667 0 195.5 -25.667 260.5 -77s97.5 -120 97.5 -206c0 -59.333 -18.167 -115.333 -54.5 -168s-97.833 -111 -184.5 -175l-114 -97v-18h368v-213h-727v189l277 239
c71.333 59.333 118.5 103.333 141.5 132s34.5 57.334 34.5 86.001s-10.333 52.167 -31 70.5s-47.334 27.5 -80.001 27.5c-34.667 0 -62.667 -10 -84 -30s-32 -46.333 -32 -79v-6h-245v5zM589.001 514.999h-266.998v679h-18c-4.66699 -2.66699 -41.834 -26.667 -111.501 -72
s-104.834 -68.333 -105.501 -69v235c60.667 45.333 138 97 232 155h270v-928zM569.003 -0.000976562l394 749l305 694h274l-399 -742l-300 -701h-274z" />
    <glyph glyph-name="threequarters" unicode="&#xbe;" horiz-adv-x="2402" 
d="M354 897l0.000976562 177.002h113c35.333 0 63.5 8.5 84.5 25.5s31.5 39.833 31.5 68.5c0 26.667 -10.833 48.5 -32.5 65.5s-50.167 25.5 -85.5 25.5c-37.333 0 -67.5 -9.33301 -90.5 -28s-35.5 -44 -37.5 -76h-243c0.666992 94.667 35 170.167 103 226.5
s159 84.5 273 84.5c108 0 195.167 -23.667 261.5 -71s99.5 -109.333 99.5 -186c0 -52.667 -16.167 -97.834 -48.5 -135.501s-74.833 -60.834 -127.5 -69.501v-19c64.667 -5.33301 115.834 -27.333 153.501 -66s56.5 -87.667 56.5 -147
c0 -84.667 -36.5 -153.167 -109.5 -205.5s-168.167 -78.5 -285.5 -78.5c-116.667 0 -209.834 29 -279.501 87s-104.834 135.667 -105.501 233h246c1.33301 -32.667 14.5 -58.5 39.5 -77.5s57.5 -28.5 97.5 -28.5c39.333 0 71 9.16699 95 27.5s36 42.166 36 71.499
c0 30.667 -11.333 54.334 -34 71.001s-54.667 25 -96 25h-115zM1837 928.002h367v-588h110v-196h-119v-144h-236v134h-481v214c32.667 66.667 74.5 141.5 125.5 224.5s128.833 201.5 233.5 355.5zM1706 337.002v-3h254v393h-14
c-127.333 -196.667 -207.333 -326.667 -240 -390zM729.001 0.00195312l394 749l305 694h274l-399 -742l-300 -701h-274z" />
    <glyph glyph-name="questiondown" unicode="&#xbf;" horiz-adv-x="1141" 
d="M1064 87c-2.66699 -127.333 -46.665 -229.501 -131.998 -306.501s-203 -115.5 -353 -115.5c-142.667 0 -257.667 36 -345 108s-131 166.333 -131 283c0 73.333 17.833 137.166 53.5 191.499s89.167 102.833 160.5 145.5c66.667 39.333 111.667 74.166 135 104.499
s35 69.5 35 117.5v53h264l2 -54c6.66699 -79.333 -4 -144.166 -32 -194.499s-77.333 -96.166 -148 -137.499c-64.667 -38.667 -108.834 -73.167 -132.501 -103.5s-35.5 -68.166 -35.5 -113.499c0 -47.333 17.667 -85.833 53 -115.5s81.333 -44.5 138 -44.5
s102.667 16.5 138 49.5s54.666 77.167 57.999 132.5h272zM609.002 810.999c-56 0 -100.333 15.167 -133 45.5s-49 71.833 -49 124.5s16.333 94.167 49 124.5s77 45.5 133 45.5c56.667 0 101.167 -15.167 133.5 -45.5s48.5 -71.833 48.5 -124.5s-16.167 -94.167 -48.5 -124.5
s-76.833 -45.5 -133.5 -45.5z" />
    <glyph glyph-name="Agrave" unicode="&#xc0;" horiz-adv-x="1500" 
d="M1102 0l-109 344h-507l-111 -344h-303l501 1443h355l501 -1443h-327zM732 1143l-181 -566h378l-179 566h-18zM624 1908l276 -318h-277l-314 318h315z" />
    <glyph glyph-name="Aacute" unicode="&#xc1;" horiz-adv-x="1500" 
d="M1102 0l-109 344h-507l-111 -344h-303l501 1443h355l501 -1443h-327zM732 1143l-181 -566h378l-179 566h-18zM609 1590l277 318h315l-314 -318h-278z" />
    <glyph glyph-name="Acircumflex" unicode="&#xc2;" horiz-adv-x="1500" 
d="M1102 0l-109 344h-507l-111 -344h-303l501 1443h355l501 -1443h-327zM732 1143l-181 -566h378l-179 566h-18zM886 1925l284 -335h-265l-146 187h-18l-146 -187h-265l284 335h272z" />
    <glyph glyph-name="Atilde" unicode="&#xc3;" horiz-adv-x="1500" 
d="M1102 0l-109 344h-507l-111 -344h-303l501 1443h355l501 -1443h-327zM732 1143l-181 -566h378l-179 566h-18zM909 1577c-30 0 -57.667 4.66602 -83 13.999s-46.666 20.833 -63.999 34.5s-33.666 27.334 -48.999 41.001s-31.333 25.167 -48 34.5s-33.667 14 -51 14
c-54.667 0 -83.334 -42.667 -86.001 -128h-184c0 96.667 22.667 172.334 68 227.001s105 82 179 82c31.333 0 60.166 -4.66699 86.499 -14s48.333 -20.833 66 -34.5s34.167 -27.334 49.5 -41.001s30.833 -25.167 46.5 -34.5s31.167 -14 46.5 -14
c53.333 0 82.333 41.333 87 124h183c0 -94 -22.833 -168.333 -68.5 -223s-105.167 -82 -178.5 -82z" />
    <glyph glyph-name="Adieresis" unicode="&#xc4;" horiz-adv-x="1500" 
d="M1102 0l-109 344h-507l-111 -344h-303l501 1443h355l501 -1443h-327zM732 1143l-181 -566h378l-179 566h-18zM516 1579c-44.667 0 -81.667 14.333 -111 43s-44 65 -44 109s14.5 80.167 43.5 108.5s66.167 42.5 111.5 42.5s82.5 -14.167 111.5 -42.5
s43.5 -64.5 43.5 -108.5s-14.667 -80.333 -44 -109s-66.333 -43 -111 -43zM984 1579c-44.667 0 -81.667 14.333 -111 43s-44 65 -44 109s14.667 80.167 44 108.5s66.333 42.5 111 42.5c45.333 0 82.666 -14.167 111.999 -42.5s44 -64.5 44 -108.5s-14.667 -80.333 -44 -109
s-66.666 -43 -111.999 -43z" />
    <glyph glyph-name="Aring" unicode="&#xc5;" horiz-adv-x="1500" 
d="M1102 0l-109 344h-507l-111 -344h-303l501 1443h355l501 -1443h-327zM732 1143l-181 -566h378l-179 566h-18zM751 1546c-59.333 0 -108.5 18.833 -147.5 56.5s-58.5 85.5 -58.5 143.5c0 57.333 19.5 104.833 58.5 142.5s88.167 56.5 147.5 56.5
c58 0 106.5 -18.833 145.5 -56.5s58.5 -85.167 58.5 -142.5c0 -58 -19.5 -105.833 -58.5 -143.5s-87.5 -56.5 -145.5 -56.5zM750 1652c28 0 50.833 8.83301 68.5 26.5s26.5 39.834 26.5 66.501c0 27.333 -9 49.833 -27 67.5s-40.667 26.5 -68 26.5s-50 -8.83301 -68 -26.5
s-27 -40.167 -27 -67.5c0 -26.667 9 -48.834 27 -66.501s40.667 -26.5 68 -26.5z" />
    <glyph glyph-name="AE" unicode="&#xc6;" horiz-adv-x="2059" 
d="M990 1202h-129l-249 -604h378v604zM990 0v364h-465l-154 -364h-299l595 1443h1250v-258h-651v-341h614v-239h-614v-347h651v-258h-927z" />
    <glyph glyph-name="Ccedilla" unicode="&#xc7;" horiz-adv-x="1518" 
d="M1121 490h293.999c-11.333 -142.667 -66.333 -261.5 -165 -356.5s-224.334 -150.5 -377.001 -166.5l-33 -79c63.333 -3.33301 111.833 -20.166 145.5 -50.499s50.5 -72.5 50.5 -126.5c0 -64 -23.333 -114 -70 -150s-112.334 -54 -197.001 -54c-56 0 -105 5.66699 -147 17
v135c24.667 -9.33301 63.334 -14 116.001 -14c74.667 0 112 19.667 112 59c0 19.333 -10.167 33.5 -30.5 42.5s-53.5 13.5 -99.5 13.5h-60v115l39 93c-183.333 19.333 -327.166 95.5 -431.499 228.5s-156.5 308.167 -156.5 525.5c0 234.667 60.5 419.667 181.5 555
s286.167 203 495.5 203c170.667 0 314.834 -50.833 432.501 -152.5s182.167 -231.167 193.5 -388.5h-294c-14.667 83.333 -52.167 150 -112.5 200s-133.5 75 -219.5 75c-113.333 0 -203 -44 -269 -132s-99 -208 -99 -360s33 -272.167 99 -360.5s156 -132.5 270 -132.5
c86.667 0 160 23.667 220 71s97.333 110.666 112 189.999z" />
    <glyph glyph-name="Egrave" unicode="&#xc8;" horiz-adv-x="1274" 
d="M527 1908l276 -318h-277l-314 318h315zM1131 258v-258h-956v1443h956v-258h-654v-337h617v-239h-617v-351h654z" />
    <glyph glyph-name="Eacute" unicode="&#xc9;" horiz-adv-x="1274" 
d="M512 1590l277 318h315l-314 -318h-278zM1131 258v-258h-956v1443h956v-258h-654v-337h617v-239h-617v-351h654z" />
    <glyph glyph-name="Ecircumflex" unicode="&#xca;" horiz-adv-x="1274" 
d="M789 1925l284 -335h-265l-146 187h-18l-146 -187h-265l284 335h272zM1131 258v-258h-956v1443h956v-258h-654v-337h617v-239h-617v-351h654z" />
    <glyph glyph-name="Edieresis" unicode="&#xcb;" horiz-adv-x="1274" 
d="M419 1579c-44.667 0 -81.667 14.333 -111 43s-44 65 -44 109s14.5 80.167 43.5 108.5s66.167 42.5 111.5 42.5s82.5 -14.167 111.5 -42.5s43.5 -64.5 43.5 -108.5s-14.667 -80.333 -44 -109s-66.333 -43 -111 -43zM887 1579c-44.667 0 -81.667 14.333 -111 43
s-44 65 -44 109s14.667 80.167 44 108.5s66.333 42.5 111 42.5c45.333 0 82.666 -14.167 111.999 -42.5s44 -64.5 44 -108.5s-14.667 -80.333 -44 -109s-66.666 -43 -111.999 -43zM1131 258v-258h-956v1443h956v-258h-654v-337h617v-239h-617v-351h654z" />
    <glyph glyph-name="Igrave" unicode="&#xcc;" horiz-adv-x="652" 
d="M477 0h-302v1443h302v-1443zM200 1908l276 -318h-277l-314 318h315z" />
    <glyph glyph-name="Iacute" unicode="&#xcd;" horiz-adv-x="652" 
d="M477 0h-302v1443h302v-1443zM185 1590l277 318h315l-314 -318h-278z" />
    <glyph glyph-name="Icircumflex" unicode="&#xce;" horiz-adv-x="652" 
d="M477 0h-302v1443h302v-1443zM462 1925l284 -335h-265l-146 187h-18l-146 -187h-265l284 335h272z" />
    <glyph glyph-name="Idieresis" unicode="&#xcf;" horiz-adv-x="652" 
d="M477 0h-302v1443h302v-1443zM92 1579c-44.667 0 -81.667 14.333 -111 43s-44 65 -44 109s14.5 80.167 43.5 108.5s66.167 42.5 111.5 42.5s82.5 -14.167 111.5 -42.5s43.5 -64.5 43.5 -108.5s-14.667 -80.333 -44 -109s-66.333 -43 -111 -43zM560 1579
c-44.667 0 -81.667 14.333 -111 43s-44 65 -44 109s14.667 80.167 44 108.5s66.333 42.5 111 42.5c45.333 0 82.666 -14.167 111.999 -42.5s44 -64.5 44 -108.5s-14.667 -80.333 -44 -109s-66.666 -43 -111.999 -43z" />
    <glyph glyph-name="Eth" unicode="&#xd0;" horiz-adv-x="1530" 
d="M477 258l217.999 0.000976562c134 0 237 40.167 309 120.5s108 196.5 108 348.5c0 145.333 -36.667 258.166 -110 338.499s-175.666 120.5 -306.999 120.5h-218v-341h228v-227h-228v-360zM174.999 1444h568c214.667 0 381.167 -62.167 499.5 -186.5
s177.5 -299.5 177.5 -525.5c0 -234 -58.833 -414.5 -176.5 -541.5s-284.5 -190.5 -500.5 -190.5h-568v618h-125v227h125v599z" />
    <glyph glyph-name="Ntilde" unicode="&#xd1;" horiz-adv-x="1573" 
d="M942 1577c-30 0 -57.667 4.66602 -83 13.999s-46.666 20.833 -63.999 34.5s-33.666 27.334 -48.999 41.001s-31.333 25.167 -48 34.5s-33.667 14 -51 14c-54.667 0 -83.334 -42.667 -86.001 -128h-184c0 96.667 22.667 172.334 68 227.001s105 82 179 82
c31.333 0 60.166 -4.66699 86.499 -14s48.333 -20.833 66 -34.5s34.167 -27.334 49.5 -41.001s30.833 -25.167 46.5 -34.5s31.167 -14 46.5 -14c53.333 0 82.333 41.333 87 124h183c0 -94 -22.833 -168.333 -68.5 -223s-105.167 -82 -178.5 -82zM464 -0.000976562h-289v1443
h252l664 -899h18v899h289v-1443h-250l-666 903h-18v-903z" />
    <glyph glyph-name="Ograve" unicode="&#xd2;" horiz-adv-x="1610" 
d="M680 1908l276 -318h-277l-314 318h315zM806 1480c213.333 0 382.166 -68 506.499 -204s186.5 -320.667 186.5 -554c0 -234 -62.167 -419 -186.5 -555s-293.166 -204 -506.499 -204c-214 0 -383.333 68 -508 204s-187 321 -187 555c0 233.333 62.667 418 188 554
s294.333 204 507 204zM806 1215c-117.333 0 -211 -44.5 -281 -133.5s-105 -208.833 -105 -359.5s34.833 -270.667 104.5 -360s163.5 -134 281.5 -134c117.333 0 210.833 44.667 280.5 134s104.5 209.333 104.5 360s-34.833 270.5 -104.5 359.5s-163.167 133.5 -280.5 133.5z
" />
    <glyph glyph-name="Oacute" unicode="&#xd3;" horiz-adv-x="1610" 
d="M665 1590l277 318h315l-314 -318h-278zM806 1480c213.333 0 382.166 -68 506.499 -204s186.5 -320.667 186.5 -554c0 -234 -62.167 -419 -186.5 -555s-293.166 -204 -506.499 -204c-214 0 -383.333 68 -508 204s-187 321 -187 555c0 233.333 62.667 418 188 554
s294.333 204 507 204zM806 1215c-117.333 0 -211 -44.5 -281 -133.5s-105 -208.833 -105 -359.5s34.833 -270.667 104.5 -360s163.5 -134 281.5 -134c117.333 0 210.833 44.667 280.5 134s104.5 209.333 104.5 360s-34.833 270.5 -104.5 359.5s-163.167 133.5 -280.5 133.5z
" />
    <glyph glyph-name="Ocircumflex" unicode="&#xd4;" horiz-adv-x="1610" 
d="M942 1925l284 -335h-265l-146 187h-18l-146 -187h-265l284 335h272zM806 1480c213.333 0 382.166 -68 506.499 -204s186.5 -320.667 186.5 -554c0 -234 -62.167 -419 -186.5 -555s-293.166 -204 -506.499 -204c-214 0 -383.333 68 -508 204s-187 321 -187 555
c0 233.333 62.667 418 188 554s294.333 204 507 204zM806 1215c-117.333 0 -211 -44.5 -281 -133.5s-105 -208.833 -105 -359.5s34.833 -270.667 104.5 -360s163.5 -134 281.5 -134c117.333 0 210.833 44.667 280.5 134s104.5 209.333 104.5 360s-34.833 270.5 -104.5 359.5
s-163.167 133.5 -280.5 133.5z" />
    <glyph glyph-name="Otilde" unicode="&#xd5;" horiz-adv-x="1610" 
d="M806 1480c213.333 0 382.166 -68 506.499 -204s186.5 -320.667 186.5 -554c0 -234 -62.167 -419 -186.5 -555s-293.166 -204 -506.499 -204c-214 0 -383.333 68 -508 204s-187 321 -187 555c0 233.333 62.667 418 188 554s294.333 204 507 204zM806 1215
c-117.333 0 -211 -44.5 -281 -133.5s-105 -208.833 -105 -359.5s34.833 -270.667 104.5 -360s163.5 -134 281.5 -134c117.333 0 210.833 44.667 280.5 134s104.5 209.333 104.5 360s-34.833 270.5 -104.5 359.5s-163.167 133.5 -280.5 133.5zM965 1577
c-30 0 -57.667 4.66602 -83 13.999s-46.666 20.833 -63.999 34.5s-33.666 27.334 -48.999 41.001s-31.333 25.167 -48 34.5s-33.667 14 -51 14c-54.667 0 -83.334 -42.667 -86.001 -128h-184c0 96.667 22.667 172.334 68 227.001s105 82 179 82
c31.333 0 60.166 -4.66699 86.499 -14s48.333 -20.833 66 -34.5s34.167 -27.334 49.5 -41.001s30.833 -25.167 46.5 -34.5s31.167 -14 46.5 -14c53.333 0 82.333 41.333 87 124h183c0 -94 -22.833 -168.333 -68.5 -223s-105.167 -82 -178.5 -82z" />
    <glyph glyph-name="Odieresis" unicode="&#xd6;" horiz-adv-x="1610" 
d="M572 1579c-44.667 0 -81.667 14.333 -111 43s-44 65 -44 109s14.5 80.167 43.5 108.5s66.167 42.5 111.5 42.5s82.5 -14.167 111.5 -42.5s43.5 -64.5 43.5 -108.5s-14.667 -80.333 -44 -109s-66.333 -43 -111 -43zM1040 1579c-44.667 0 -81.667 14.333 -111 43
s-44 65 -44 109s14.667 80.167 44 108.5s66.333 42.5 111 42.5c45.333 0 82.666 -14.167 111.999 -42.5s44 -64.5 44 -108.5s-14.667 -80.333 -44 -109s-66.666 -43 -111.999 -43zM806 1480c213.333 0 382.166 -68 506.499 -204s186.5 -320.667 186.5 -554
c0 -234 -62.167 -419 -186.5 -555s-293.166 -204 -506.499 -204c-214 0 -383.333 68 -508 204s-187 321 -187 555c0 233.333 62.667 418 188 554s294.333 204 507 204zM806 1215c-117.333 0 -211 -44.5 -281 -133.5s-105 -208.833 -105 -359.5s34.833 -270.667 104.5 -360
s163.5 -134 281.5 -134c117.333 0 210.833 44.667 280.5 134s104.5 209.333 104.5 360s-34.833 270.5 -104.5 359.5s-163.167 133.5 -280.5 133.5z" />
    <glyph glyph-name="multiply" unicode="&#xd7;" horiz-adv-x="1415" 
d="M708 402l-305 -304l-175 182l304 304l-304 305l175 182l305 -304l304 304l175 -182l-304 -305l304 -304l-175 -182z" />
    <glyph glyph-name="Oslash" unicode="&#xd8;" horiz-adv-x="1592" 
d="M1097 1067l-510 -768c62 -47.333 135 -71 219 -71c117.333 0 210.833 44.667 280.5 134s104.5 209.333 104.5 360c0 144 -31.333 259 -94 345zM503 392l506.001 763c-58.667 40 -126.334 60 -203.001 60c-117.333 0 -211 -44.5 -281 -133.5s-105 -208.833 -105 -359.5
c0 -134 27.667 -244 83 -330zM1350 1448l-84 -127.002c75.333 -65.333 133 -149 173 -251s60 -218 60 -348c0 -234 -62.167 -419 -186.5 -555s-293.166 -204 -506.499 -204c-144.667 0 -270.334 32.333 -377.001 97l-85 -128l-102 66l90 135
c-71.333 66.667 -126 149.834 -164 249.501s-57 212.834 -57 339.501c0 233.333 62.667 418 188 554s294.333 204 507 204c138 0 258 -29.333 360 -88l76 115z" />
    <glyph glyph-name="Ugrave" unicode="&#xd9;" horiz-adv-x="1565" 
d="M656 1908l276 -318h-277l-314 318h315zM480 1443v-914c0 -92 26.5 -164.667 79.5 -218s127.167 -80 222.5 -80c96 0 170.5 26.667 223.5 80s79.5 126 79.5 218v914h302v-945c0 -160.667 -54.833 -290 -164.5 -388s-256.5 -147 -440.5 -147
c-183.333 0 -329.833 49 -439.5 147s-164.5 227.333 -164.5 388v945h302z" />
    <glyph glyph-name="Uacute" unicode="&#xda;" horiz-adv-x="1565" 
d="M641 1590l277 318h315l-314 -318h-278zM480 1443v-914c0 -92 26.5 -164.667 79.5 -218s127.167 -80 222.5 -80c96 0 170.5 26.667 223.5 80s79.5 126 79.5 218v914h302v-945c0 -160.667 -54.833 -290 -164.5 -388s-256.5 -147 -440.5 -147
c-183.333 0 -329.833 49 -439.5 147s-164.5 227.333 -164.5 388v945h302z" />
    <glyph glyph-name="Ucircumflex" unicode="&#xdb;" horiz-adv-x="1565" 
d="M918 1925l284 -335h-265l-146 187h-18l-146 -187h-265l284 335h272zM480 1443v-914c0 -92 26.5 -164.667 79.5 -218s127.167 -80 222.5 -80c96 0 170.5 26.667 223.5 80s79.5 126 79.5 218v914h302v-945c0 -160.667 -54.833 -290 -164.5 -388s-256.5 -147 -440.5 -147
c-183.333 0 -329.833 49 -439.5 147s-164.5 227.333 -164.5 388v945h302z" />
    <glyph glyph-name="Udieresis" unicode="&#xdc;" horiz-adv-x="1565" 
d="M548 1579c-44.667 0 -81.667 14.333 -111 43s-44 65 -44 109s14.5 80.167 43.5 108.5s66.167 42.5 111.5 42.5s82.5 -14.167 111.5 -42.5s43.5 -64.5 43.5 -108.5s-14.667 -80.333 -44 -109s-66.333 -43 -111 -43zM1016 1579c-44.667 0 -81.667 14.333 -111 43
s-44 65 -44 109s14.667 80.167 44 108.5s66.333 42.5 111 42.5c45.333 0 82.666 -14.167 111.999 -42.5s44 -64.5 44 -108.5s-14.667 -80.333 -44 -109s-66.666 -43 -111.999 -43zM480 1443v-914c0 -92 26.5 -164.667 79.5 -218s127.167 -80 222.5 -80
c96 0 170.5 26.667 223.5 80s79.5 126 79.5 218v914h302v-945c0 -160.667 -54.833 -290 -164.5 -388s-256.5 -147 -440.5 -147c-183.333 0 -329.833 49 -439.5 147s-164.5 227.333 -164.5 388v945h302z" />
    <glyph glyph-name="Yacute" unicode="&#xdd;" horiz-adv-x="1452" 
d="M877 0h-302v531l-503 912h327l318 -604h18l317 604h327l-502 -912v-531zM585 1590l277 318h315l-314 -318h-278z" />
    <glyph glyph-name="Thorn" unicode="&#xde;" horiz-adv-x="1378" 
d="M175 1443l304 -0.000976562v-232h307c139.333 0 253.333 -41.667 342 -125s133 -195.666 133 -336.999c0 -140.667 -46 -252.667 -138 -336s-209.333 -125 -352 -125h-294v-288h-302v1443zM477 962.999v-430h226c78 0 139.333 18.5 184 55.5s67 90.5 67 160.5
c0 69.333 -22.167 122.333 -66.5 159s-105.5 55 -183.5 55h-227z" />
    <glyph glyph-name="germandbls" unicode="&#xdf;" horiz-adv-x="1402" 
d="M482 0h-290v1079c0 124 45.167 222 135.5 294s211.833 108 364.5 108c146 0 264.833 -35 356.5 -105s137.5 -160.667 137.5 -272c0 -79.333 -20.167 -148.333 -60.5 -207s-92.833 -97 -157.5 -115v-19c100.667 -6.66699 181.667 -42.5 243 -107.5s92 -149.833 92 -254.5
c0 -124.667 -44 -225.167 -132 -301.5s-205.667 -114.5 -353 -114.5c-76 0 -136.333 5.33301 -181 16v241c36 -12 79 -18 129 -18c76.667 0 136 17.5 178 52.5s63 82.5 63 142.5c0 60.667 -24.167 108.5 -72.5 143.5s-115.5 52.5 -201.5 52.5h-72v245h49
c58.667 0 105.5 17 140.5 51s52.5 81 52.5 141c0 55.333 -18.5 100 -55.5 134s-87.167 51 -150.5 51c-69.333 0 -122.5 -18.833 -159.5 -56.5s-55.5 -92.167 -55.5 -163.5v-1017z" />
    <glyph glyph-name="agrave" unicode="&#xe0;" horiz-adv-x="1208" 
d="M544 202c67.333 0 123.667 19.001 169 57.001s68 85 68 141v81l-223 -14c-124 -8.66699 -186 -53 -186 -133c0 -40.667 15.833 -72.834 47.5 -96.501s73.167 -35.5 124.5 -35.5zM448.001 -16.999c-106.667 0 -193.499 30.333 -260.499 91s-100.5 141 -100.5 241
c0 99.333 36.833 177.5 110.5 234.5s179.167 89.5 316.5 97.5l267 16v90c0 46 -16 81.5 -48 106.5s-78 37.5 -138 37.5c-108 0 -174.333 -34 -199 -102h-268c9.33301 102 57.5 182.833 144.5 242.5s199.833 89.5 338.5 89.5c145.333 0 257.833 -32.667 337.5 -98
s119.5 -157.333 119.5 -276v-753h-282v144h-18c-28.667 -50.667 -71.334 -90.167 -128.001 -118.5s-120.667 -42.5 -192 -42.5zM770.002 1281h-269l-287 353h309z" />
    <glyph glyph-name="aacute" unicode="&#xe1;" horiz-adv-x="1208" 
d="M544 202c67.333 0 123.667 19.001 169 57.001s68 85 68 141v81l-223 -14c-124 -8.66699 -186 -53 -186 -133c0 -40.667 15.833 -72.834 47.5 -96.501s73.167 -35.5 124.5 -35.5zM448.001 -16.999c-106.667 0 -193.499 30.333 -260.499 91s-100.5 141 -100.5 241
c0 99.333 36.833 177.5 110.5 234.5s179.167 89.5 316.5 97.5l267 16v90c0 46 -16 81.5 -48 106.5s-78 37.5 -138 37.5c-108 0 -174.333 -34 -199 -102h-268c9.33301 102 57.5 182.833 144.5 242.5s199.833 89.5 338.5 89.5c145.333 0 257.833 -32.667 337.5 -98
s119.5 -157.333 119.5 -276v-753h-282v144h-18c-28.667 -50.667 -71.334 -90.167 -128.001 -118.5s-120.667 -42.5 -192 -42.5zM456.002 1281l247 353h309l-287 -353h-269z" />
    <glyph glyph-name="acircumflex" unicode="&#xe2;" horiz-adv-x="1208" 
d="M544 202c67.333 0 123.667 19.001 169 57.001s68 85 68 141v81l-223 -14c-124 -8.66699 -186 -53 -186 -133c0 -40.667 15.833 -72.834 47.5 -96.501s73.167 -35.5 124.5 -35.5zM448.001 -16.999c-106.667 0 -193.499 30.333 -260.499 91s-100.5 141 -100.5 241
c0 99.333 36.833 177.5 110.5 234.5s179.167 89.5 316.5 97.5l267 16v90c0 46 -16 81.5 -48 106.5s-78 37.5 -138 37.5c-108 0 -174.333 -34 -199 -102h-268c9.33301 102 57.5 182.833 144.5 242.5s199.833 89.5 338.5 89.5c145.333 0 257.833 -32.667 337.5 -98
s119.5 -157.333 119.5 -276v-753h-282v144h-18c-28.667 -50.667 -71.334 -90.167 -128.001 -118.5s-120.667 -42.5 -192 -42.5zM756.002 1605l275 -354h-263l-148 209h-18l-149 -209h-263l275 354h291z" />
    <glyph glyph-name="atilde" unicode="&#xe3;" horiz-adv-x="1208" 
d="M544 202c67.333 0 123.667 19.001 169 57.001s68 85 68 141v81l-223 -14c-124 -8.66699 -186 -53 -186 -133c0 -40.667 15.833 -72.834 47.5 -96.501s73.167 -35.5 124.5 -35.5zM448.001 -16.999c-106.667 0 -193.499 30.333 -260.499 91s-100.5 141 -100.5 241
c0 99.333 36.833 177.5 110.5 234.5s179.167 89.5 316.5 97.5l267 16v90c0 46 -16 81.5 -48 106.5s-78 37.5 -138 37.5c-108 0 -174.333 -34 -199 -102h-268c9.33301 102 57.5 182.833 144.5 242.5s199.833 89.5 338.5 89.5c145.333 0 257.833 -32.667 337.5 -98
s119.5 -157.333 119.5 -276v-753h-282v144h-18c-28.667 -50.667 -71.334 -90.167 -128.001 -118.5s-120.667 -42.5 -192 -42.5zM484.002 1397c-57.333 0 -86.667 -47.001 -88 -141.001h-187c0 96.667 23.833 174.334 71.5 233.001s110.834 88 189.501 88
c28 0 54.333 -5 79 -15s45.5 -22 62.5 -36s33 -28 48 -42s30 -26 45 -36s29.5 -15 43.5 -15c58 0 87.333 46 88 138h187c0 -96 -23.833 -173 -71.5 -231s-110.834 -87 -189.501 -87c-28 0 -54.333 5 -79 15s-45.5 22 -62.5 36s-33 28 -48 42s-30 26 -45 36
s-29.5 15 -43.5 15z" />
    <glyph glyph-name="adieresis" unicode="&#xe4;" horiz-adv-x="1208" 
d="M544 202c67.333 0 123.667 19.001 169 57.001s68 85 68 141v81l-223 -14c-124 -8.66699 -186 -53 -186 -133c0 -40.667 15.833 -72.834 47.5 -96.501s73.167 -35.5 124.5 -35.5zM448.001 -16.999c-106.667 0 -193.499 30.333 -260.499 91s-100.5 141 -100.5 241
c0 99.333 36.833 177.5 110.5 234.5s179.167 89.5 316.5 97.5l267 16v90c0 46 -16 81.5 -48 106.5s-78 37.5 -138 37.5c-108 0 -174.333 -34 -199 -102h-268c9.33301 102 57.5 182.833 144.5 242.5s199.833 89.5 338.5 89.5c145.333 0 257.833 -32.667 337.5 -98
s119.5 -157.333 119.5 -276v-753h-282v144h-18c-28.667 -50.667 -71.334 -90.167 -128.001 -118.5s-120.667 -42.5 -192 -42.5zM377.002 1251c-44.667 0 -81.667 14.333 -111 43s-44 65 -44 109s14.5 80.167 43.5 108.5s66.167 42.5 111.5 42.5s82.5 -14.167 111.5 -42.5
s43.5 -64.5 43.5 -108.5s-14.667 -80.333 -44 -109s-66.333 -43 -111 -43zM845.002 1251c-44.667 0 -81.667 14.333 -111 43s-44 65 -44 109s14.667 80.167 44 108.5s66.333 42.5 111 42.5c45.333 0 82.666 -14.167 111.999 -42.5s44 -64.5 44 -108.5
s-14.667 -80.333 -44 -109s-66.666 -43 -111.999 -43z" />
    <glyph glyph-name="aring" unicode="&#xe5;" horiz-adv-x="1208" 
d="M544 202c67.333 0 123.667 19.001 169 57.001s68 85 68 141v81l-223 -14c-124 -8.66699 -186 -53 -186 -133c0 -40.667 15.833 -72.834 47.5 -96.501s73.167 -35.5 124.5 -35.5zM448.001 -16.999c-106.667 0 -193.499 30.333 -260.499 91s-100.5 141 -100.5 241
c0 99.333 36.833 177.5 110.5 234.5s179.167 89.5 316.5 97.5l267 16v90c0 46 -16 81.5 -48 106.5s-78 37.5 -138 37.5c-108 0 -174.333 -34 -199 -102h-268c9.33301 102 57.5 182.833 144.5 242.5s199.833 89.5 338.5 89.5c145.333 0 257.833 -32.667 337.5 -98
s119.5 -157.333 119.5 -276v-753h-282v144h-18c-28.667 -50.667 -71.334 -90.167 -128.001 -118.5s-120.667 -42.5 -192 -42.5zM611.002 1251c-70 0 -128.5 22.833 -175.5 68.5s-70.5 103.167 -70.5 172.5c0 68 23.5 124.667 70.5 170s105.5 68 175.5 68
s128.333 -22.5 175 -67.5s70 -101.833 70 -170.5c0 -69.333 -23.333 -126.833 -70 -172.5s-105 -68.5 -175 -68.5zM611.002 1387c30.667 0 55.833 9.83301 75.5 29.5s29.5 44.5 29.5 74.5c0 29.333 -10 53.833 -30 73.5s-45 29.5 -75 29.5c-30.667 0 -56 -9.83301 -76 -29.5
s-30 -44.167 -30 -73.5c0 -30.667 10 -55.667 30 -75s45.333 -29 76 -29z" />
    <glyph glyph-name="ae" unicode="&#xe6;" horiz-adv-x="1894" 
d="M1315 -24c-86.667 0 -165.002 17.832 -235.002 53.499s-122 83.834 -156 144.501h-18c-42.667 -62 -99.167 -110.5 -169.5 -145.5s-149.5 -52.5 -237.5 -52.5c-124.667 0 -224.5 31.333 -299.5 94s-112.5 144.334 -112.5 245.001c0 99.333 36.833 177.5 110.5 234.5
s179.167 89.5 316.5 97.5l267 16v73c0 53.333 -16.5 93.5 -49.5 120.5s-78.5 40.5 -136.5 40.5c-108 0 -174.333 -34 -199 -102h-268c8.66699 97.333 55 177 139 239s188.333 93 313 93c167.333 0 286.333 -52.667 357 -158h18c38.667 48 89.167 86.333 151.5 115
s130.5 43 204.5 43c152 0 272 -49.333 360 -148s132 -232.334 132 -401.001v-94h-747v-26c2.66699 -78 27.334 -140.5 74.001 -187.5s107.334 -70.5 182.001 -70.5c103.333 0 174 38 212 114h269c-22 -104 -75.667 -186.333 -161 -247s-191 -91 -317 -91zM1293 903.999
c-68 0 -123.499 -21.5 -166.499 -64.5s-66.5 -99.833 -70.5 -170.5h462c-2.66699 70 -24.834 126.667 -66.501 170s-94.5 65 -158.5 65zM548.999 198.999c68.667 0 124.501 19.332 167.501 57.999s64.5 85.334 64.5 140.001v84l-223 -14
c-124 -8.66699 -186 -53.667 -186 -135c0 -41.333 16.167 -73.833 48.5 -97.5s75.166 -35.5 128.499 -35.5z" />
    <glyph glyph-name="ccedilla" unicode="&#xe7;" horiz-adv-x="1203" 
d="M1122 714l-272 0.000976562c-10 54 -33.833 96.5 -71.5 127.5s-86.834 46.5 -147.501 46.5c-78.667 0 -139.167 -28.667 -181.5 -86s-63.5 -140 -63.5 -248c0 -109.333 21.167 -193.166 63.5 -251.499s102.833 -87.5 181.5 -87.5c60 0 108.833 14.333 146.5 43
s61.834 70 72.501 124h272c-10.667 -110.667 -51 -201.334 -121 -272.001s-163 -113.334 -279 -128.001l-39 -94c63.333 -3.33301 111.833 -20.166 145.5 -50.499s50.5 -72.5 50.5 -126.5c0 -64 -23.333 -114 -70 -150s-112.334 -54 -197.001 -54
c-56 0 -105 5.66699 -147 17v135c24.667 -9.33301 63.334 -14 116.001 -14c74.667 0 112 19.667 112 59c0 19.333 -10.167 33.5 -30.5 42.5s-53.5 13.5 -99.5 13.5h-60v115l44 105c-146 16 -258.333 73.333 -337 172s-118 232.667 -118 402
c0 183.333 46.667 324.666 140 423.999s226.333 149 399 149c144 0 258.833 -37 344.5 -111s134.5 -174.667 146.5 -302z" />
    <glyph glyph-name="egrave" unicode="&#xe8;" horiz-adv-x="1231" 
d="M781 1281h-269l-287 353h309zM623 904c-67.333 0 -122.833 -21.667 -166.5 -65s-68.167 -100.666 -73.5 -171.999h470c-3.33301 73.333 -25.5 131.166 -66.5 173.499s-95.5 63.5 -163.5 63.5zM859 314h271.001c-22 -104.667 -77.833 -187.167 -167.5 -247.5
s-201.834 -90.5 -336.501 -90.5c-168 0 -299 50.167 -393 150.5s-141 240.166 -141 419.499s47.333 321 142 425s224 156 388 156c162.667 0 289.5 -49 380.5 -147s136.5 -234.667 136.5 -410v-89h-757v-15c2 -82 25.5 -146.833 70.5 -194.5s105.5 -71.5 181.5 -71.5
c57.333 0 105.333 9.83301 144 29.5s65.667 47.834 81 84.501z" />
    <glyph glyph-name="eacute" unicode="&#xe9;" horiz-adv-x="1231" 
d="M467 1281l247 353h309l-287 -353h-269zM623 904c-67.333 0 -122.833 -21.667 -166.5 -65s-68.167 -100.666 -73.5 -171.999h470c-3.33301 73.333 -25.5 131.166 -66.5 173.499s-95.5 63.5 -163.5 63.5zM859 314h271.001c-22 -104.667 -77.833 -187.167 -167.5 -247.5
s-201.834 -90.5 -336.501 -90.5c-168 0 -299 50.167 -393 150.5s-141 240.166 -141 419.499s47.333 321 142 425s224 156 388 156c162.667 0 289.5 -49 380.5 -147s136.5 -234.667 136.5 -410v-89h-757v-15c2 -82 25.5 -146.833 70.5 -194.5s105.5 -71.5 181.5 -71.5
c57.333 0 105.333 9.83301 144 29.5s65.667 47.834 81 84.501z" />
    <glyph glyph-name="ecircumflex" unicode="&#xea;" horiz-adv-x="1231" 
d="M767 1605l275 -354h-263l-148 209h-18l-149 -209h-263l275 354h291zM623 904c-67.333 0 -122.833 -21.667 -166.5 -65s-68.167 -100.666 -73.5 -171.999h470c-3.33301 73.333 -25.5 131.166 -66.5 173.499s-95.5 63.5 -163.5 63.5zM859 314h271.001
c-22 -104.667 -77.833 -187.167 -167.5 -247.5s-201.834 -90.5 -336.501 -90.5c-168 0 -299 50.167 -393 150.5s-141 240.166 -141 419.499s47.333 321 142 425s224 156 388 156c162.667 0 289.5 -49 380.5 -147s136.5 -234.667 136.5 -410v-89h-757v-15
c2 -82 25.5 -146.833 70.5 -194.5s105.5 -71.5 181.5 -71.5c57.333 0 105.333 9.83301 144 29.5s65.667 47.834 81 84.501z" />
    <glyph glyph-name="edieresis" unicode="&#xeb;" horiz-adv-x="1231" 
d="M623 904c-67.333 0 -122.833 -21.667 -166.5 -65s-68.167 -100.666 -73.5 -171.999h470c-3.33301 73.333 -25.5 131.166 -66.5 173.499s-95.5 63.5 -163.5 63.5zM859 314h271.001c-22 -104.667 -77.833 -187.167 -167.5 -247.5s-201.834 -90.5 -336.501 -90.5
c-168 0 -299 50.167 -393 150.5s-141 240.166 -141 419.499s47.333 321 142 425s224 156 388 156c162.667 0 289.5 -49 380.5 -147s136.5 -234.667 136.5 -410v-89h-757v-15c2 -82 25.5 -146.833 70.5 -194.5s105.5 -71.5 181.5 -71.5c57.333 0 105.333 9.83301 144 29.5
s65.667 47.834 81 84.501zM388.001 1251c-44.667 0 -81.667 14.333 -111 43s-44 65 -44 109s14.5 80.167 43.5 108.5s66.167 42.5 111.5 42.5s82.5 -14.167 111.5 -42.5s43.5 -64.5 43.5 -108.5s-14.667 -80.333 -44 -109s-66.333 -43 -111 -43zM856.001 1251
c-44.667 0 -81.667 14.333 -111 43s-44 65 -44 109s14.667 80.167 44 108.5s66.333 42.5 111 42.5c45.333 0 82.666 -14.167 111.999 -42.5s44 -64.5 44 -108.5s-14.667 -80.333 -44 -109s-66.666 -43 -111.999 -43z" />
    <glyph glyph-name="igrave" unicode="&#xec;" horiz-adv-x="587" 
d="M453 1281h-269l-287 353h309zM148 0v1103h291v-1103h-291z" />
    <glyph glyph-name="iacute" unicode="&#xed;" horiz-adv-x="587" 
d="M139 1281l247 353h309l-287 -353h-269zM148 0v1103h291v-1103h-291z" />
    <glyph glyph-name="icircumflex" unicode="&#xee;" horiz-adv-x="587" 
d="M439 1605l275 -354h-263l-148 209h-18l-149 -209h-263l275 354h291zM148 0v1103h291v-1103h-291z" />
    <glyph glyph-name="idieresis" unicode="&#xef;" horiz-adv-x="587" 
d="M148 0v1103h291v-1103h-291zM60 1251c-44.667 0 -81.667 14.333 -111 43s-44 65 -44 109s14.5 80.167 43.5 108.5s66.167 42.5 111.5 42.5s82.5 -14.167 111.5 -42.5s43.5 -64.5 43.5 -108.5s-14.667 -80.333 -44 -109s-66.333 -43 -111 -43zM528 1251
c-44.667 0 -81.667 14.333 -111 43s-44 65 -44 109s14.667 80.167 44 108.5s66.333 42.5 111 42.5c45.333 0 82.666 -14.167 111.999 -42.5s44 -64.5 44 -108.5s-14.667 -80.333 -44 -109s-66.666 -43 -111.999 -43z" />
    <glyph glyph-name="eth" unicode="&#xf0;" horiz-adv-x="1277" 
d="M638 -17c-163.333 0 -294.334 50.3359 -393.001 151.003s-148 234.667 -148 402c0 153.333 42.333 277.833 127 373.5s195 143.5 331 143.5c60 0 115.5 -11.333 166.5 -34s89.833 -53 116.5 -91h17c-13.333 43.333 -35.166 90.166 -65.499 140.499
s-65.5 97.166 -105.5 140.499l-285 -95l-55 143l228 76c-52 46 -132.667 107 -242 183h363c40 -30 79.667 -63.333 119 -100l265 89l57 -143l-205 -68c82.667 -97.333 145.5 -204.833 188.5 -322.5s64.5 -240.167 64.5 -367.5c0 -188.667 -49.333 -339.334 -148 -452.001
s-230.667 -169 -396 -169zM644.999 843.003c-76.667 0 -137.334 -27.832 -182.001 -83.499s-67 -130.834 -67 -225.501s22.333 -169.667 67 -225s105.334 -83 182.001 -83c77.333 0 138.333 27.667 183 83s67 130.333 67 225c0 94 -22.667 169 -68 225s-106 84 -182 84z" />
    <glyph glyph-name="ntilde" unicode="&#xf1;" horiz-adv-x="1285" 
d="M528 1397c-57.333 0 -86.667 -47.001 -88 -141.001h-187c0 96.667 23.833 174.334 71.5 233.001s110.834 88 189.501 88c28 0 54.333 -5 79 -15s45.5 -22 62.5 -36s33 -28 48 -42s30 -26 45 -36s29.5 -15 43.5 -15c58 0 87.333 46 88 138h187
c0 -96 -23.833 -173 -71.5 -231s-110.834 -87 -189.501 -87c-28 0 -54.333 5 -79 15s-45.5 22 -62.5 36s-33 28 -48 42s-30 26 -45 36s-29.5 15 -43.5 15zM145.999 -0.000976562v1103h282v-177h18c26 63.333 66.833 112.666 122.5 147.999s123.5 53 203.5 53
c122 0 215.333 -35.833 280 -107.5s97 -173.834 97 -306.501v-713h-291v644c0 154.667 -67.667 232 -203 232c-67.333 0 -120.5 -21.833 -159.5 -65.5s-58.5 -101.834 -58.5 -174.501v-636h-291z" />
    <glyph glyph-name="ograve" unicode="&#xf2;" horiz-adv-x="1269" 
d="M794 1281h-269l-287 353h309zM635 214c77.333 0 137.333 29.5 180 88.5s64 142.167 64 249.5c0 106 -21.5 188.667 -64.5 248s-102.833 89 -179.5 89c-77.333 0 -137.333 -29.667 -180 -89s-64 -142 -64 -248c0 -107.333 21.167 -190.5 63.5 -249.5
s102.5 -88.5 180.5 -88.5zM635 -24c-169.333 0 -302.168 51 -398.501 153s-144.5 243 -144.5 423c0 178.667 48.5 319.167 145.5 421.5s229.5 153.5 397.5 153.5s300.5 -51.167 397.5 -153.5s145.5 -242.833 145.5 -421.5c0 -180 -48.167 -321 -144.5 -423
s-229.166 -153 -398.499 -153z" />
    <glyph glyph-name="oacute" unicode="&#xf3;" horiz-adv-x="1269" 
d="M480 1281l247 353h309l-287 -353h-269zM635 214c77.333 0 137.333 29.5 180 88.5s64 142.167 64 249.5c0 106 -21.5 188.667 -64.5 248s-102.833 89 -179.5 89c-77.333 0 -137.333 -29.667 -180 -89s-64 -142 -64 -248c0 -107.333 21.167 -190.5 63.5 -249.5
s102.5 -88.5 180.5 -88.5zM635 -24c-169.333 0 -302.168 51 -398.501 153s-144.5 243 -144.5 423c0 178.667 48.5 319.167 145.5 421.5s229.5 153.5 397.5 153.5s300.5 -51.167 397.5 -153.5s145.5 -242.833 145.5 -421.5c0 -180 -48.167 -321 -144.5 -423
s-229.166 -153 -398.499 -153z" />
    <glyph glyph-name="ocircumflex" unicode="&#xf4;" horiz-adv-x="1269" 
d="M780 1605l275 -354h-263l-148 209h-18l-149 -209h-263l275 354h291zM635 214c77.333 0 137.333 29.5 180 88.5s64 142.167 64 249.5c0 106 -21.5 188.667 -64.5 248s-102.833 89 -179.5 89c-77.333 0 -137.333 -29.667 -180 -89s-64 -142 -64 -248
c0 -107.333 21.167 -190.5 63.5 -249.5s102.5 -88.5 180.5 -88.5zM635 -24c-169.333 0 -302.168 51 -398.501 153s-144.5 243 -144.5 423c0 178.667 48.5 319.167 145.5 421.5s229.5 153.5 397.5 153.5s300.5 -51.167 397.5 -153.5s145.5 -242.833 145.5 -421.5
c0 -180 -48.167 -321 -144.5 -423s-229.166 -153 -398.499 -153z" />
    <glyph glyph-name="otilde" unicode="&#xf5;" horiz-adv-x="1269" 
d="M508 1397c-57.333 0 -86.667 -47.001 -88 -141.001h-187c0 96.667 23.833 174.334 71.5 233.001s110.834 88 189.501 88c28 0 54.333 -5 79 -15s45.5 -22 62.5 -36s33 -28 48 -42s30 -26 45 -36s29.5 -15 43.5 -15c58 0 87.333 46 88 138h187
c0 -96 -23.833 -173 -71.5 -231s-110.834 -87 -189.501 -87c-28 0 -54.333 5 -79 15s-45.5 22 -62.5 36s-33 28 -48 42s-30 26 -45 36s-29.5 15 -43.5 15zM634.999 213.999c77.333 0 137.333 29.5 180 88.5s64 142.167 64 249.5c0 106 -21.5 188.667 -64.5 248
s-102.833 89 -179.5 89c-77.333 0 -137.333 -29.667 -180 -89s-64 -142 -64 -248c0 -107.333 21.167 -190.5 63.5 -249.5s102.5 -88.5 180.5 -88.5zM634.999 -24.001c-169.333 0 -302.168 51 -398.501 153s-144.5 243 -144.5 423c0 178.667 48.5 319.167 145.5 421.5
s229.5 153.5 397.5 153.5s300.5 -51.167 397.5 -153.5s145.5 -242.833 145.5 -421.5c0 -180 -48.167 -321 -144.5 -423s-229.166 -153 -398.499 -153z" />
    <glyph glyph-name="odieresis" unicode="&#xf6;" horiz-adv-x="1269" 
d="M401 1251c-44.667 0 -81.667 14.333 -111 43s-44 65 -44 109s14.5 80.167 43.5 108.5s66.167 42.5 111.5 42.5s82.5 -14.167 111.5 -42.5s43.5 -64.5 43.5 -108.5s-14.667 -80.333 -44 -109s-66.333 -43 -111 -43zM869 1251c-44.667 0 -81.667 14.333 -111 43
s-44 65 -44 109s14.667 80.167 44 108.5s66.333 42.5 111 42.5c45.333 0 82.666 -14.167 111.999 -42.5s44 -64.5 44 -108.5s-14.667 -80.333 -44 -109s-66.666 -43 -111.999 -43zM635 214c77.333 0 137.333 29.5 180 88.5s64 142.167 64 249.5
c0 106 -21.5 188.667 -64.5 248s-102.833 89 -179.5 89c-77.333 0 -137.333 -29.667 -180 -89s-64 -142 -64 -248c0 -107.333 21.167 -190.5 63.5 -249.5s102.5 -88.5 180.5 -88.5zM635 -24c-169.333 0 -302.168 51 -398.501 153s-144.5 243 -144.5 423
c0 178.667 48.5 319.167 145.5 421.5s229.5 153.5 397.5 153.5s300.5 -51.167 397.5 -153.5s145.5 -242.833 145.5 -421.5c0 -180 -48.167 -321 -144.5 -423s-229.166 -153 -398.499 -153z" />
    <glyph glyph-name="divide" unicode="&#xf7;" horiz-adv-x="1415" 
d="M1248 472h-1080v225h1080v-225zM708 815c-49.333 0 -89.5 15 -120.5 45s-46.5 69 -46.5 117s15.5 86.833 46.5 116.5s71.167 44.5 120.5 44.5s89.5 -14.833 120.5 -44.5s46.5 -68.5 46.5 -116.5s-15.5 -87 -46.5 -117s-71.167 -45 -120.5 -45zM708 30
c-49.333 0 -89.5 15 -120.5 45s-46.5 69 -46.5 117s15.5 87 46.5 117s71.167 45 120.5 45s89.5 -15 120.5 -45s46.5 -69 46.5 -117s-15.5 -87 -46.5 -117s-71.167 -45 -120.5 -45z" />
    <glyph glyph-name="oslash" unicode="&#xf8;" horiz-adv-x="1269" 
d="M841 755l-320 -513.001c32.667 -18.667 70.667 -28 114 -28c77.333 0 137.333 29.5 180 88.5s64 142.167 64 249.5c0 80.667 -12.667 148.334 -38 203.001zM436 332.999l324 520c-35.333 24 -77 36 -125 36c-77.333 0 -137.333 -29.667 -180 -89s-64 -142 -64 -248
c0 -90.667 15 -163.667 45 -219zM1065 1114l-67.001 -107c120 -103.333 180 -255 180 -455c0 -180 -48.167 -321 -144.5 -423s-229.166 -153 -398.499 -153c-92.667 0 -175.667 16 -249 48l-61 -97l-103 63l60 96c-126.667 102 -190 257.333 -190 466
c0 178.667 48.5 319.167 145.5 421.5s229.5 153.5 397.5 153.5c98 0 185.333 -18.333 262 -55l62 100z" />
    <glyph glyph-name="ugrave" unicode="&#xf9;" horiz-adv-x="1290" 
d="M799 1281h-269l-287 353h309zM1144 1103v-1103h-282v177h-18c-54.667 -134 -162 -201 -322 -201c-119.333 0 -213.5 36.167 -282.5 108.5s-103.5 172.166 -103.5 299.499v719h291v-644c0 -153.333 67.667 -230 203 -230c71.333 0 126.333 21 165 63s58 100.333 58 175
v636h291z" />
    <glyph glyph-name="uacute" unicode="&#xfa;" horiz-adv-x="1290" 
d="M485 1281l247 353h309l-287 -353h-269zM1144 1103v-1103h-282v177h-18c-54.667 -134 -162 -201 -322 -201c-119.333 0 -213.5 36.167 -282.5 108.5s-103.5 172.166 -103.5 299.499v719h291v-644c0 -153.333 67.667 -230 203 -230c71.333 0 126.333 21 165 63
s58 100.333 58 175v636h291z" />
    <glyph glyph-name="ucircumflex" unicode="&#xfb;" horiz-adv-x="1290" 
d="M785 1605l275 -354h-263l-148 209h-18l-149 -209h-263l275 354h291zM1144 1103v-1103h-282v177h-18c-54.667 -134 -162 -201 -322 -201c-119.333 0 -213.5 36.167 -282.5 108.5s-103.5 172.166 -103.5 299.499v719h291v-644c0 -153.333 67.667 -230 203 -230
c71.333 0 126.333 21 165 63s58 100.333 58 175v636h291z" />
    <glyph glyph-name="udieresis" unicode="&#xfc;" horiz-adv-x="1290" 
d="M1144 1103v-1103h-282v177h-18c-54.667 -134 -162 -201 -322 -201c-119.333 0 -213.5 36.167 -282.5 108.5s-103.5 172.166 -103.5 299.499v719h291v-644c0 -153.333 67.667 -230 203 -230c71.333 0 126.333 21 165 63s58 100.333 58 175v636h291zM406 1251
c-44.667 0 -81.667 14.333 -111 43s-44 65 -44 109s14.5 80.167 43.5 108.5s66.167 42.5 111.5 42.5s82.5 -14.167 111.5 -42.5s43.5 -64.5 43.5 -108.5s-14.667 -80.333 -44 -109s-66.333 -43 -111 -43zM874 1251c-44.667 0 -81.667 14.333 -111 43s-44 65 -44 109
s14.667 80.167 44 108.5s66.333 42.5 111 42.5c45.333 0 82.666 -14.167 111.999 -42.5s44 -64.5 44 -108.5s-14.667 -80.333 -44 -109s-66.666 -43 -111.999 -43z" />
    <glyph glyph-name="yacute" unicode="&#xfd;" horiz-adv-x="1223" 
d="M283 -401c-62 0 -98.998 0.999023 -110.998 2.99902v234c6.66699 -1.33301 28.667 -2 66 -2c55.333 0 98.666 9.5 129.999 28.5s53 49.167 65 90.5l10 40l-387 1110h321l232 -836h18l232 836h308l-380 -1120c-46.667 -141.333 -107.834 -240.666 -183.501 -297.999
s-182.5 -86 -320.5 -86zM461.002 1281l247 353h309l-287 -353h-269z" />
    <glyph glyph-name="thorn" unicode="&#xfe;" horiz-adv-x="1339" 
d="M790 1121c140 0 249.667 -50.334 329 -151.001s119 -240 119 -418c0 -177.333 -39.667 -316.5 -119 -417.5s-188 -151.5 -326 -151.5c-78.667 0 -147 16.333 -205 49s-100.667 78.334 -128 137.001h-18v-514h-291v1852h287v-585h18c30 62 74.333 110.667 133 146
s125.667 53 201 53zM689 225.999c78.667 0 139.999 28.833 183.999 86.5s66 137.5 66 239.5c0 101.333 -22.167 180.833 -66.5 238.5s-105.166 86.5 -182.499 86.5s-138.5 -29.167 -183.5 -87.5s-67.5 -137.833 -67.5 -238.5s22.333 -180 67 -238s105.667 -87 183 -87z" />
    <glyph glyph-name="ydieresis" unicode="&#xff;" horiz-adv-x="1223" 
d="M283 -401c-62 0 -98.998 0.999023 -110.998 2.99902v234c6.66699 -1.33301 28.667 -2 66 -2c55.333 0 98.666 9.5 129.999 28.5s53 49.167 65 90.5l10 40l-387 1110h321l232 -836h18l232 836h308l-380 -1120c-46.667 -141.333 -107.834 -240.666 -183.501 -297.999
s-182.5 -86 -320.5 -86zM382.002 1251c-44.667 0 -81.667 14.333 -111 43s-44 65 -44 109s14.5 80.167 43.5 108.5s66.167 42.5 111.5 42.5s82.5 -14.167 111.5 -42.5s43.5 -64.5 43.5 -108.5s-14.667 -80.333 -44 -109s-66.333 -43 -111 -43zM850.002 1251
c-44.667 0 -81.667 14.333 -111 43s-44 65 -44 109s14.667 80.167 44 108.5s66.333 42.5 111 42.5c45.333 0 82.666 -14.167 111.999 -42.5s44 -64.5 44 -108.5s-14.667 -80.333 -44 -109s-66.666 -43 -111.999 -43z" />
    <glyph glyph-name="Amacron" unicode="&#x100;" horiz-adv-x="1500" 
d="M1102 0l-109 344h-507l-111 -344h-303l501 1443h355l501 -1443h-327zM732 1143l-181 -566h378l-179 566h-18zM1123 1632h-746v181h746v-181z" />
    <glyph glyph-name="amacron" unicode="&#x101;" horiz-adv-x="1208" 
d="M544 202c67.333 0 123.667 19.001 169 57.001s68 85 68 141v81l-223 -14c-124 -8.66699 -186 -53 -186 -133c0 -40.667 15.833 -72.834 47.5 -96.501s73.167 -35.5 124.5 -35.5zM448.001 -16.999c-106.667 0 -193.499 30.333 -260.499 91s-100.5 141 -100.5 241
c0 99.333 36.833 177.5 110.5 234.5s179.167 89.5 316.5 97.5l267 16v90c0 46 -16 81.5 -48 106.5s-78 37.5 -138 37.5c-108 0 -174.333 -34 -199 -102h-268c9.33301 102 57.5 182.833 144.5 242.5s199.833 89.5 338.5 89.5c145.333 0 257.833 -32.667 337.5 -98
s119.5 -157.333 119.5 -276v-753h-282v144h-18c-28.667 -50.667 -71.334 -90.167 -128.001 -118.5s-120.667 -42.5 -192 -42.5zM979.002 1316h-735v180h735v-180z" />
    <glyph glyph-name="Abreve" unicode="&#x102;" horiz-adv-x="1500" 
d="M1102 0l-109 344h-507l-111 -344h-303l501 1443h355l501 -1443h-327zM732 1143l-181 -566h378l-179 566h-18zM350 1915h208.002c1.33301 -50 19.166 -89.833 53.499 -119.5s80.5 -44.5 138.5 -44.5s104.167 14.833 138.5 44.5s52.166 69.5 53.499 119.5h208
c0 -100 -36.167 -181 -108.5 -243s-169.5 -93 -291.5 -93s-219.167 31 -291.5 93s-108.5 143 -108.5 243z" />
    <glyph glyph-name="abreve" unicode="&#x103;" horiz-adv-x="1208" 
d="M544 202c67.333 0 123.667 19.001 169 57.001s68 85 68 141v81l-223 -14c-124 -8.66699 -186 -53 -186 -133c0 -40.667 15.833 -72.834 47.5 -96.501s73.167 -35.5 124.5 -35.5zM448.001 -16.999c-106.667 0 -193.499 30.333 -260.499 91s-100.5 141 -100.5 241
c0 99.333 36.833 177.5 110.5 234.5s179.167 89.5 316.5 97.5l267 16v90c0 46 -16 81.5 -48 106.5s-78 37.5 -138 37.5c-108 0 -174.333 -34 -199 -102h-268c9.33301 102 57.5 182.833 144.5 242.5s199.833 89.5 338.5 89.5c145.333 0 257.833 -32.667 337.5 -98
s119.5 -157.333 119.5 -276v-753h-282v144h-18c-28.667 -50.667 -71.334 -90.167 -128.001 -118.5s-120.667 -42.5 -192 -42.5zM211.002 1602h207c1.33301 -54 19 -97.167 53 -129.5s80.333 -48.5 139 -48.5s105 16.167 139 48.5s51.667 75.5 53 129.5h208
c0 -104 -36.167 -188.5 -108.5 -253.5s-169.5 -97.5 -291.5 -97.5s-219 32.5 -291 97.5s-108 149.5 -108 253.5z" />
    <glyph glyph-name="Aogonek" unicode="&#x104;" horiz-adv-x="1500" 
d="M732 1143l-181 -566h378l-179 566h-18zM1104 -7l-111 351h-507l-111 -344h-303l501 1443h355l501 -1443l-50 -6c-54 -12 -102 -35.167 -144 -69.5s-63 -72.5 -63 -114.5c0 -30 10.667 -53.5 32 -70.5s50 -25.5 86 -25.5c31.333 0 54.333 2.66699 69 8v-167
c-36 -14 -82 -21 -138 -21c-82 0 -148.333 21 -199 63s-76 95.667 -76 161c0 46 14.667 90.333 44 133s67.333 76.667 114 102z" />
    <glyph glyph-name="aogonek" unicode="&#x105;" horiz-adv-x="1208" 
d="M544 202c67.333 0 123.667 19 169 57s68 85 68 141v81l-223 -14c-124 -8.66699 -186 -53 -186 -133c0 -40 15.667 -72 47 -96s73 -36 125 -36zM619.001 -242c0 48.667 15.667 94.502 47 137.502s71.333 75.833 120 98.5v150h-18
c-28.667 -50.667 -71.334 -90.167 -128.001 -118.5s-120.667 -42.5 -192 -42.5c-107.333 0 -194.333 30.5 -261 91.5s-100 141.167 -100 240.5s36.667 177.5 110 234.5s179 89.5 317 97.5l267 16v90c0 46 -16.167 81.5 -48.5 106.5s-78.166 37.5 -137.499 37.5
c-108 0 -174.333 -34 -199 -102h-268c9.33301 102 57.5 182.833 144.5 242.5s199.833 89.5 338.5 89.5c144.667 0 257 -32.667 337 -98s120 -157.333 120 -276v-753l-36 -7c-54 -14 -98.667 -37.833 -134 -71.5s-53 -70.834 -53 -111.501
c0 -28.667 10.333 -51.834 31 -69.501s49.667 -26.5 87 -26.5c33.333 0 56.333 2.66699 69 8v-167c-38 -14 -84 -21 -138 -21c-81.333 0 -147.5 20.833 -198.5 62.5s-76.5 95.5 -76.5 161.5z" />
    <glyph glyph-name="Cacute" unicode="&#x106;" horiz-adv-x="1518" 
d="M647 1591l277 318h315l-314 -318h-278zM788 -37c-209.333 0 -374.5 67.833 -495.5 203.5s-181.5 320.834 -181.5 555.501s60.5 419.667 181.5 555s286.167 203 495.5 203c170.667 0 314.834 -50.833 432.501 -152.5s182.167 -231.167 193.5 -388.5h-294
c-14.667 83.333 -52.167 150 -112.5 200s-133.5 75 -219.5 75c-113.333 0 -203 -44 -269 -132s-99 -208 -99 -360s33 -272.167 99 -360.5s156 -132.5 270 -132.5c86.667 0 160 23.667 220 71s97.333 110.666 112 189.999h294c-12.667 -156 -76.834 -282.833 -192.501 -380.5
s-260.5 -146.5 -434.5 -146.5z" />
    <glyph glyph-name="cacute" unicode="&#x107;" horiz-adv-x="1203" 
d="M1122 714h-272c-10 54 -33.833 96.5 -71.5 127.5s-86.834 46.5 -147.501 46.5c-78.667 0 -139.167 -28.667 -181.5 -86s-63.5 -140 -63.5 -248c0 -109.333 21.167 -193.166 63.5 -251.499s102.833 -87.5 181.5 -87.5c60 0 108.833 14.333 146.5 43s61.834 70 72.501 124
h272c-12 -124.667 -61.333 -223.5 -148 -296.5s-201 -109.5 -343 -109.5c-172 0 -304.833 50.167 -398.5 150.5s-140.5 242.833 -140.5 427.5c0 183.333 46.667 324.666 140 423.999s226.333 149 399 149c144 0 258.833 -37 344.5 -111s134.5 -174.667 146.5 -302zM475 1281
l247 353h309l-287 -353h-269z" />
    <glyph glyph-name="Ccircumflex" unicode="&#x108;" horiz-adv-x="1518" 
d="M788 -37c-209.333 0 -374.5 67.833 -495.5 203.5s-181.5 320.834 -181.5 555.501s60.5 419.667 181.5 555s286.167 203 495.5 203c170.667 0 314.834 -50.833 432.501 -152.5s182.167 -231.167 193.5 -388.5h-294c-14.667 83.333 -52.167 150 -112.5 200
s-133.5 75 -219.5 75c-113.333 0 -203 -44 -269 -132s-99 -208 -99 -360s33 -272.167 99 -360.5s156 -132.5 270 -132.5c86.667 0 160 23.667 220 71s97.333 110.666 112 189.999h294c-12.667 -156 -76.834 -282.833 -192.501 -380.5s-260.5 -146.5 -434.5 -146.5zM924 1926
l284 -335h-265l-146 187h-18l-146 -187h-265l284 335h272z" />
    <glyph glyph-name="ccircumflex" unicode="&#x109;" horiz-adv-x="1203" 
d="M775 1605l275 -354h-263l-148 209h-18l-149 -209h-263l275 354h291zM1122 714h-272c-10 54 -33.833 96.5 -71.5 127.5s-86.834 46.5 -147.501 46.5c-78.667 0 -139.167 -28.667 -181.5 -86s-63.5 -140 -63.5 -248c0 -109.333 21.167 -193.166 63.5 -251.499
s102.833 -87.5 181.5 -87.5c60 0 108.833 14.333 146.5 43s61.834 70 72.501 124h272c-12 -124.667 -61.333 -223.5 -148 -296.5s-201 -109.5 -343 -109.5c-172 0 -304.833 50.167 -398.5 150.5s-140.5 242.833 -140.5 427.5c0 183.333 46.667 324.666 140 423.999
s226.333 149 399 149c144 0 258.833 -37 344.5 -111s134.5 -174.667 146.5 -302z" />
    <glyph glyph-name="Cdotaccent" unicode="&#x10a;" horiz-adv-x="1518" 
d="M788 1580c-46 0 -83.833 15 -113.5 45s-44.5 67.667 -44.5 113s14.833 83 44.5 113s67.5 45 113.5 45s83.667 -15 113 -45s44 -67.667 44 -113s-14.667 -83 -44 -113s-67 -45 -113 -45zM788 -37c-209.333 0 -374.5 67.833 -495.5 203.5s-181.5 320.834 -181.5 555.501
s60.5 419.667 181.5 555s286.167 203 495.5 203c170.667 0 314.834 -50.833 432.501 -152.5s182.167 -231.167 193.5 -388.5h-294c-14.667 83.333 -52.167 150 -112.5 200s-133.5 75 -219.5 75c-113.333 0 -203 -44 -269 -132s-99 -208 -99 -360s33 -272.167 99 -360.5
s156 -132.5 270 -132.5c86.667 0 160 23.667 220 71s97.333 110.666 112 189.999h294c-12.667 -156 -76.834 -282.833 -192.501 -380.5s-260.5 -146.5 -434.5 -146.5z" />
    <glyph glyph-name="cdotaccent" unicode="&#x10b;" horiz-adv-x="1203" 
d="M1122 714h-272c-10 54 -33.833 96.5 -71.5 127.5s-86.834 46.5 -147.501 46.5c-78.667 0 -139.167 -28.667 -181.5 -86s-63.5 -140 -63.5 -248c0 -109.333 21.167 -193.166 63.5 -251.499s102.833 -87.5 181.5 -87.5c60 0 108.833 14.333 146.5 43s61.834 70 72.501 124
h272c-12 -124.667 -61.333 -223.5 -148 -296.5s-201 -109.5 -343 -109.5c-172 0 -304.833 50.167 -398.5 150.5s-140.5 242.833 -140.5 427.5c0 183.333 46.667 324.666 140 423.999s226.333 149 399 149c144 0 258.833 -37 344.5 -111s134.5 -174.667 146.5 -302zM630 1278
c-46.667 0 -85.167 15.167 -115.5 45.5s-45.5 68.5 -45.5 114.5s15.167 84.333 45.5 115s68.833 46 115.5 46s85.167 -15.333 115.5 -46s45.5 -69 45.5 -115s-15.167 -84.167 -45.5 -114.5s-68.833 -45.5 -115.5 -45.5z" />
    <glyph glyph-name="Ccaron" unicode="&#x10c;" horiz-adv-x="1518" 
d="M788 -37c-209.333 0 -374.5 67.833 -495.5 203.5s-181.5 320.834 -181.5 555.501s60.5 419.667 181.5 555s286.167 203 495.5 203c170.667 0 314.834 -50.833 432.501 -152.5s182.167 -231.167 193.5 -388.5h-294c-14.667 83.333 -52.167 150 -112.5 200
s-133.5 75 -219.5 75c-113.333 0 -203 -44 -269 -132s-99 -208 -99 -360s33 -272.167 99 -360.5s156 -132.5 270 -132.5c86.667 0 160 23.667 220 71s97.333 110.666 112 189.999h294c-12.667 -156 -76.834 -282.833 -192.501 -380.5s-260.5 -146.5 -434.5 -146.5zM915 1591
h-254l-281 318h253l145 -173h20l145 173h253z" />
    <glyph glyph-name="ccaron" unicode="&#x10d;" horiz-adv-x="1203" 
d="M775 1251h-291l-275 354h263l149 -209h18l148 209h263zM1122 714h-272c-10 54 -33.833 96.5 -71.5 127.5s-86.834 46.5 -147.501 46.5c-78.667 0 -139.167 -28.667 -181.5 -86s-63.5 -140 -63.5 -248c0 -109.333 21.167 -193.166 63.5 -251.499
s102.833 -87.5 181.5 -87.5c60 0 108.833 14.333 146.5 43s61.834 70 72.501 124h272c-12 -124.667 -61.333 -223.5 -148 -296.5s-201 -109.5 -343 -109.5c-172 0 -304.833 50.167 -398.5 150.5s-140.5 242.833 -140.5 427.5c0 183.333 46.667 324.666 140 423.999
s226.333 149 399 149c144 0 258.833 -37 344.5 -111s134.5 -174.667 146.5 -302z" />
    <glyph glyph-name="Dcaron" unicode="&#x10e;" horiz-adv-x="1530" 
d="M766 1590h-254l-281 318h253l145 -173h20l145 173h253zM175 1444h568c214.667 0 381.167 -62.167 499.5 -186.5s177.5 -299.5 177.5 -525.5c0 -234 -58.833 -414.5 -176.5 -541.5s-284.5 -190.5 -500.5 -190.5h-568v1444zM477 1186l-0.000976562 -927.999h218
c134 0 237 40.167 309 120.5s108 196.5 108 348.5c0 145.333 -36.667 258.166 -110 338.499s-175.666 120.5 -306.999 120.5h-218z" />
    <glyph glyph-name="dcaron" unicode="&#x10f;" horiz-adv-x="1535" 
d="M1314 1524h251l-50 -505h-201v505zM541 -17c-138.667 0 -248.168 51 -328.501 153s-120.5 241 -120.5 417c0 175.333 40.167 313.833 120.5 415.5s189.833 152.5 328.5 152.5c74.667 0 141 -17.167 199 -51.5s101.333 -81.833 130 -142.5h17v597h291v-1524h-282v173h-18
c-29.333 -59.333 -73.666 -105.833 -132.999 -139.5s-127.333 -50.5 -204 -50.5zM639.999 877c-77.333 0 -138.167 -28.833 -182.5 -86.5s-66.5 -137.167 -66.5 -238.5c0 -102 22 -181.833 66 -239.5s105 -86.5 183 -86.5s139.167 28.833 183.5 86.5
s66.5 137.167 66.5 238.5c0 100.667 -22.333 180.167 -67 238.5s-105.667 87.5 -183 87.5z" />
    <glyph glyph-name="Dcroat" unicode="&#x110;" horiz-adv-x="1533" 
d="M480 258l217.999 0.000976562c134 0 237 40.167 309 120.5s108 196.5 108 348.5c0 145.333 -36.667 258.166 -110 338.499s-175.666 120.5 -306.999 120.5h-218v-341h225v-227h-225v-360zM177.999 1444h568c214.667 0 381.167 -62.167 499.5 -186.5
s177.5 -299.5 177.5 -525.5c0 -234 -58.833 -414.5 -176.5 -541.5s-284.5 -190.5 -500.5 -190.5h-568v618h-128v227h128v599z" />
    <glyph glyph-name="dcroat" unicode="&#x111;" horiz-adv-x="1346" 
d="M652 226c78 0 139.166 28.833 183.499 86.5s66.5 137.167 66.5 238.5c0 100.667 -22.333 180.167 -67 238.5s-105.667 87.5 -183 87.5s-138.166 -28.833 -182.499 -86.5s-66.5 -137.167 -66.5 -238.5c0 -102 22 -181.833 66 -239.5s105 -86.5 183 -86.5zM1334 1408
l-0.000976562 -153h-144v-1255h-282v173h-18c-29.333 -59.333 -73.666 -105.833 -132.999 -139.5s-127.333 -50.5 -204 -50.5c-138.667 0 -248.167 51 -328.5 153s-120.5 241 -120.5 417c0 175.333 40.167 313.833 120.5 415.5s189.833 152.5 328.5 152.5
c74.667 0 141 -17.167 199 -51.5s101.333 -81.833 130 -142.5h17v328h-233v153h233v116h291v-116h144z" />
    <glyph glyph-name="Emacron" unicode="&#x112;" horiz-adv-x="1274" 
d="M1131 258v-258h-956v1443h956v-258h-654v-337h617v-239h-617v-351h654zM1026 1632h-746v181h746v-181z" />
    <glyph glyph-name="emacron" unicode="&#x113;" horiz-adv-x="1231" 
d="M623 904c-67.333 0 -122.833 -21.667 -166.5 -65s-68.167 -100.666 -73.5 -171.999h470c-3.33301 73.333 -25.5 131.166 -66.5 173.499s-95.5 63.5 -163.5 63.5zM859 314h271.001c-22 -104.667 -77.833 -187.167 -167.5 -247.5s-201.834 -90.5 -336.501 -90.5
c-168 0 -299 50.167 -393 150.5s-141 240.166 -141 419.499s47.333 321 142 425s224 156 388 156c162.667 0 289.5 -49 380.5 -147s136.5 -234.667 136.5 -410v-89h-757v-15c2 -82 25.5 -146.833 70.5 -194.5s105.5 -71.5 181.5 -71.5c57.333 0 105.333 9.83301 144 29.5
s65.667 47.834 81 84.501zM990.001 1316h-735v180h735v-180z" />
    <glyph glyph-name="Ebreve" unicode="&#x114;" horiz-adv-x="1274" 
d="M1131 258v-258h-956v1443h956v-258h-654v-337h617v-239h-617v-351h654zM253 1915h208.002c1.33301 -50 19.166 -89.833 53.499 -119.5s80.5 -44.5 138.5 -44.5s104.167 14.833 138.5 44.5s52.166 69.5 53.499 119.5h208c0 -100 -36.167 -181 -108.5 -243
s-169.5 -93 -291.5 -93s-219.167 31 -291.5 93s-108.5 143 -108.5 243z" />
    <glyph glyph-name="ebreve" unicode="&#x115;" horiz-adv-x="1231" 
d="M623 904c-67.333 0 -122.833 -21.667 -166.5 -65s-68.167 -100.666 -73.5 -171.999h470c-3.33301 73.333 -25.5 131.166 -66.5 173.499s-95.5 63.5 -163.5 63.5zM859 314h271.001c-22 -104.667 -77.833 -187.167 -167.5 -247.5s-201.834 -90.5 -336.501 -90.5
c-168 0 -299 50.167 -393 150.5s-141 240.166 -141 419.499s47.333 321 142 425s224 156 388 156c162.667 0 289.5 -49 380.5 -147s136.5 -234.667 136.5 -410v-89h-757v-15c2 -82 25.5 -146.833 70.5 -194.5s105.5 -71.5 181.5 -71.5c57.333 0 105.333 9.83301 144 29.5
s65.667 47.834 81 84.501zM222.001 1602h207c1.33301 -54 19 -97.167 53 -129.5s80.333 -48.5 139 -48.5s105 16.167 139 48.5s51.667 75.5 53 129.5h208c0 -104 -36.167 -188.5 -108.5 -253.5s-169.5 -97.5 -291.5 -97.5s-219 32.5 -291 97.5s-108 149.5 -108 253.5z" />
    <glyph glyph-name="Edotaccent" unicode="&#x116;" horiz-adv-x="1274" 
d="M653 1579c-46 0 -83.833 15 -113.5 45s-44.5 67.667 -44.5 113s14.833 83 44.5 113s67.5 45 113.5 45s83.667 -15 113 -45s44 -67.667 44 -113s-14.667 -83 -44 -113s-67 -45 -113 -45zM1131 258v-258h-956v1443h956v-258h-654v-337h617v-239h-617v-351h654z" />
    <glyph glyph-name="edotaccent" unicode="&#x117;" horiz-adv-x="1231" 
d="M622 1278c-46.667 0 -85.167 15.167 -115.5 45.5s-45.5 68.5 -45.5 114.5s15.167 84.333 45.5 115s68.833 46 115.5 46s85.167 -15.333 115.5 -46s45.5 -69 45.5 -115s-15.167 -84.167 -45.5 -114.5s-68.833 -45.5 -115.5 -45.5zM623 904
c-67.333 0 -122.833 -21.667 -166.5 -65s-68.167 -100.666 -73.5 -171.999h470c-3.33301 73.333 -25.5 131.166 -66.5 173.499s-95.5 63.5 -163.5 63.5zM859 314h271.001c-22 -104.667 -77.833 -187.167 -167.5 -247.5s-201.834 -90.5 -336.501 -90.5
c-168 0 -299 50.167 -393 150.5s-141 240.166 -141 419.499s47.333 321 142 425s224 156 388 156c162.667 0 289.5 -49 380.5 -147s136.5 -234.667 136.5 -410v-89h-757v-15c2 -82 25.5 -146.833 70.5 -194.5s105.5 -71.5 181.5 -71.5c57.333 0 105.333 9.83301 144 29.5
s65.667 47.834 81 84.501z" />
    <glyph glyph-name="Eogonek" unicode="&#x118;" horiz-adv-x="1274" 
d="M809 0h-634v1443h956v-258h-654v-337h617v-239h-617v-351h654v-253l-46 -11c-50 -13.333 -94.5 -37 -133.5 -71s-58.5 -71.667 -58.5 -113c0 -30 10.667 -53.5 32 -70.5s50 -25.5 86 -25.5c32.667 0 55.667 2.66699 69 8v-167c-36 -14 -82 -21 -138 -21
c-81.333 0 -147.333 21 -198 63s-76 95.667 -76 161c0 44.667 13 87.167 39 127.5s60 72.5 102 96.5v18z" />
    <glyph glyph-name="eogonek" unicode="&#x119;" horiz-adv-x="1231" 
d="M623 904c-67.333 0 -122.833 -21.667 -166.5 -65s-68.167 -100.666 -73.5 -171.999h470c-3.33301 73.333 -25.5 131.166 -66.5 173.499s-95.5 63.5 -163.5 63.5zM570 -242c0 41.333 11.835 80.5029 35.502 117.503s55.5 67.167 95.5 90.5v18
c-17.333 -5.33301 -42.333 -8 -75 -8c-168 0 -299 50.167 -393 150.5s-141 240.166 -141 419.499s47.333 321 142 425s224 156 388 156c162.667 0 289.5 -49 380.5 -147s136.5 -234.667 136.5 -410v-89h-757v-15c2 -82 25.5 -146.833 70.5 -194.5s105.5 -71.5 181.5 -71.5
c57.333 0 105.333 9.83301 144 29.5s65.667 47.834 81 84.501h271c-6.66699 -42.667 -26.334 -89.834 -59.001 -141.501s-71.667 -95.834 -117 -132.501c-54.667 -44 -94.834 -83.833 -120.501 -119.5s-38.5 -70.834 -38.5 -105.501c0 -32 10.667 -56.833 32 -74.5
s50 -26.5 86 -26.5c32.667 0 55.667 2.66699 69 8v-167c-36 -14 -82 -21 -138 -21c-81.333 0 -147.333 21 -198 63s-76 95.667 -76 161z" />
    <glyph glyph-name="Ecaron" unicode="&#x11a;" horiz-adv-x="1274" 
d="M780 1590h-254l-281 318h253l145 -173h20l145 173h253zM1131 258v-258h-956v1443h956v-258h-654v-337h617v-239h-617v-351h654z" />
    <glyph glyph-name="ecaron" unicode="&#x11b;" horiz-adv-x="1231" 
d="M767 1251h-291l-275 354h263l149 -209h18l148 209h263zM623 904c-67.333 0 -122.833 -21.667 -166.5 -65s-68.167 -100.666 -73.5 -171.999h470c-3.33301 73.333 -25.5 131.166 -66.5 173.499s-95.5 63.5 -163.5 63.5zM859 314h271.001
c-22 -104.667 -77.833 -187.167 -167.5 -247.5s-201.834 -90.5 -336.501 -90.5c-168 0 -299 50.167 -393 150.5s-141 240.166 -141 419.499s47.333 321 142 425s224 156 388 156c162.667 0 289.5 -49 380.5 -147s136.5 -234.667 136.5 -410v-89h-757v-15
c2 -82 25.5 -146.833 70.5 -194.5s105.5 -71.5 181.5 -71.5c57.333 0 105.333 9.83301 144 29.5s65.667 47.834 81 84.501z" />
    <glyph glyph-name="Gcircumflex" unicode="&#x11c;" horiz-adv-x="1557" 
d="M932 1926l284 -335h-265l-146 187h-18l-146 -187h-265l284 335h272zM1443 589c0 -192.667 -57.333 -345.165 -172 -457.498s-270.667 -168.5 -468 -168.5c-214.667 0 -383.667 67.667 -507 203s-185 321 -185 557c0 232.667 61.667 417 185 553s290 204 500 204
c170.667 0 313.667 -45.333 429 -136s183.666 -211 204.999 -361h-300c-22.667 73.333 -63 130.166 -121 170.499s-129 60.5 -213 60.5c-116.667 0 -208.5 -43.5 -275.5 -130.5s-100.5 -206.167 -100.5 -357.5c0 -154 34.833 -275.333 104.5 -364s164.167 -133 283.5 -133
c98.667 0 179.334 26.667 242.001 80s95.667 123.666 99 210.999l1 26h-313v227h606v-184z" />
    <glyph glyph-name="gcircumflex" unicode="&#x11d;" horiz-adv-x="1322" 
d="M789 1605l275 -354h-263l-148 209h-18l-149 -209h-263l275 354h291zM888 561c0 97.333 -22.501 174.333 -67.501 231s-106.5 85 -184.5 85s-138.833 -28.167 -182.5 -84.5s-65.5 -133.166 -65.5 -230.499c0 -98 21.667 -175.167 65 -231.5s104.333 -84.5 183 -84.5
s140.334 28.167 185.001 84.5s67 133.166 67 230.499zM631.999 -418c-145.333 0 -263.499 29.501 -354.499 88.501s-141.167 137.167 -150.5 234.5h288c7.33301 -34 30.666 -61 69.999 -81s90.333 -30 153 -30c78 0 138.667 17.167 182 51.5s65 82.5 65 144.5v204h-18
c-62.667 -118.667 -173.334 -178 -332.001 -178c-137.333 0 -246 49.167 -326 147.5s-120 230.833 -120 397.5c0 171.333 40.5 307.5 121.5 408.5s191.167 151.5 330.5 151.5c74.667 0 141.834 -17.333 201.501 -52s104.167 -82.334 133.5 -143.001h18v177h282v-1099
c0 -129.333 -49 -232 -147 -308s-230.333 -114 -397 -114z" />
    <glyph glyph-name="Gbreve" unicode="&#x11e;" horiz-adv-x="1557" 
d="M1443 589c0 -192.667 -57.333 -345.165 -172 -457.498s-270.667 -168.5 -468 -168.5c-214.667 0 -383.667 67.667 -507 203s-185 321 -185 557c0 232.667 61.667 417 185 553s290 204 500 204c170.667 0 313.667 -45.333 429 -136s183.666 -211 204.999 -361h-300
c-22.667 73.333 -63 130.166 -121 170.499s-129 60.5 -213 60.5c-116.667 0 -208.5 -43.5 -275.5 -130.5s-100.5 -206.167 -100.5 -357.5c0 -154 34.833 -275.333 104.5 -364s164.167 -133 283.5 -133c98.667 0 179.334 26.667 242.001 80s95.667 123.666 99 210.999l1 26
h-313v227h606v-184zM396 1916h208.002c1.33301 -50 19.166 -89.833 53.499 -119.5s80.5 -44.5 138.5 -44.5s104.167 14.833 138.5 44.5s52.166 69.5 53.499 119.5h208c0 -100 -36.167 -181 -108.5 -243s-169.5 -93 -291.5 -93s-219.167 31 -291.5 93s-108.5 143 -108.5 243z
" />
    <glyph glyph-name="gbreve" unicode="&#x11f;" horiz-adv-x="1322" 
d="M244 1602h207c1.33301 -54 19 -97.167 53 -129.5s80.333 -48.5 139 -48.5s105 16.167 139 48.5s51.667 75.5 53 129.5h208c0 -104 -36.167 -188.5 -108.5 -253.5s-169.5 -97.5 -291.5 -97.5s-219 32.5 -291 97.5s-108 149.5 -108 253.5zM888 561
c0 97.333 -22.501 174.333 -67.501 231s-106.5 85 -184.5 85s-138.833 -28.167 -182.5 -84.5s-65.5 -133.166 -65.5 -230.499c0 -98 21.667 -175.167 65 -231.5s104.333 -84.5 183 -84.5s140.334 28.167 185.001 84.5s67 133.166 67 230.499zM631.999 -418
c-145.333 0 -263.499 29.501 -354.499 88.501s-141.167 137.167 -150.5 234.5h288c7.33301 -34 30.666 -61 69.999 -81s90.333 -30 153 -30c78 0 138.667 17.167 182 51.5s65 82.5 65 144.5v204h-18c-62.667 -118.667 -173.334 -178 -332.001 -178
c-137.333 0 -246 49.167 -326 147.5s-120 230.833 -120 397.5c0 171.333 40.5 307.5 121.5 408.5s191.167 151.5 330.5 151.5c74.667 0 141.834 -17.333 201.501 -52s104.167 -82.334 133.5 -143.001h18v177h282v-1099c0 -129.333 -49 -232 -147 -308
s-230.333 -114 -397 -114z" />
    <glyph glyph-name="Gdotaccent" unicode="&#x120;" horiz-adv-x="1557" 
d="M796 1580c-46 0 -83.833 15 -113.5 45s-44.5 67.667 -44.5 113s14.833 83 44.5 113s67.5 45 113.5 45s83.667 -15 113 -45s44 -67.667 44 -113s-14.667 -83 -44 -113s-67 -45 -113 -45zM1443 589c0 -192.667 -57.333 -345.165 -172 -457.498s-270.667 -168.5 -468 -168.5
c-214.667 0 -383.667 67.667 -507 203s-185 321 -185 557c0 232.667 61.667 417 185 553s290 204 500 204c170.667 0 313.667 -45.333 429 -136s183.666 -211 204.999 -361h-300c-22.667 73.333 -63 130.166 -121 170.499s-129 60.5 -213 60.5
c-116.667 0 -208.5 -43.5 -275.5 -130.5s-100.5 -206.167 -100.5 -357.5c0 -154 34.833 -275.333 104.5 -364s164.167 -133 283.5 -133c98.667 0 179.334 26.667 242.001 80s95.667 123.666 99 210.999l1 26h-313v227h606v-184z" />
    <glyph glyph-name="gdotaccent" unicode="&#x121;" horiz-adv-x="1322" 
d="M644 1278c-46.667 0 -85.167 15.167 -115.5 45.5s-45.5 68.5 -45.5 114.5s15.167 84.333 45.5 115s68.833 46 115.5 46s85.167 -15.333 115.5 -46s45.5 -69 45.5 -115s-15.167 -84.167 -45.5 -114.5s-68.833 -45.5 -115.5 -45.5zM888 561
c0 97.333 -22.501 174.333 -67.501 231s-106.5 85 -184.5 85s-138.833 -28.167 -182.5 -84.5s-65.5 -133.166 -65.5 -230.499c0 -98 21.667 -175.167 65 -231.5s104.333 -84.5 183 -84.5s140.334 28.167 185.001 84.5s67 133.166 67 230.499zM631.999 -418
c-145.333 0 -263.499 29.501 -354.499 88.501s-141.167 137.167 -150.5 234.5h288c7.33301 -34 30.666 -61 69.999 -81s90.333 -30 153 -30c78 0 138.667 17.167 182 51.5s65 82.5 65 144.5v204h-18c-62.667 -118.667 -173.334 -178 -332.001 -178
c-137.333 0 -246 49.167 -326 147.5s-120 230.833 -120 397.5c0 171.333 40.5 307.5 121.5 408.5s191.167 151.5 330.5 151.5c74.667 0 141.834 -17.333 201.501 -52s104.167 -82.334 133.5 -143.001h18v177h282v-1099c0 -129.333 -49 -232 -147 -308
s-230.333 -114 -397 -114z" />
    <glyph glyph-name="Gcommaaccent" unicode="&#x122;" horiz-adv-x="1557" 
d="M807 -509h-258l132 358h292zM1443 589c0 -192.667 -57.333 -345.165 -172 -457.498s-270.667 -168.5 -468 -168.5c-214.667 0 -383.667 67.667 -507 203s-185 321 -185 557c0 232.667 61.667 417 185 553s290 204 500 204c170.667 0 313.667 -45.333 429 -136
s183.666 -211 204.999 -361h-300c-22.667 73.333 -63 130.166 -121 170.499s-129 60.5 -213 60.5c-116.667 0 -208.5 -43.5 -275.5 -130.5s-100.5 -206.167 -100.5 -357.5c0 -154 34.833 -275.333 104.5 -364s164.167 -133 283.5 -133c98.667 0 179.334 26.667 242.001 80
s95.667 123.666 99 210.999l1 26h-313v227h606v-184z" />
    <glyph glyph-name="gcommaaccent" unicode="&#x123;" horiz-adv-x="1322" 
d="M669 1649h258l-132 -358h-292zM888 561c0 97.333 -22.501 174.333 -67.501 231s-106.5 85 -184.5 85s-138.833 -28.167 -182.5 -84.5s-65.5 -133.166 -65.5 -230.499c0 -98 21.667 -175.167 65 -231.5s104.333 -84.5 183 -84.5s140.334 28.167 185.001 84.5
s67 133.166 67 230.499zM631.999 -418c-145.333 0 -263.499 29.501 -354.499 88.501s-141.167 137.167 -150.5 234.5h288c7.33301 -34 30.666 -61 69.999 -81s90.333 -30 153 -30c78 0 138.667 17.167 182 51.5s65 82.5 65 144.5v204h-18
c-62.667 -118.667 -173.334 -178 -332.001 -178c-137.333 0 -246 49.167 -326 147.5s-120 230.833 -120 397.5c0 171.333 40.5 307.5 121.5 408.5s191.167 151.5 330.5 151.5c74.667 0 141.834 -17.333 201.501 -52s104.167 -82.334 133.5 -143.001h18v177h282v-1099
c0 -129.333 -49 -232 -147 -308s-230.333 -114 -397 -114z" />
    <glyph glyph-name="Hcircumflex" unicode="&#x124;" horiz-adv-x="1604" 
d="M1429 0h-302v603h-650v-603h-302v1443h302v-582h650v582h302v-1443zM938 1925l284 -335h-265l-146 187h-18l-146 -187h-265l284 335h272z" />
    <glyph glyph-name="hcircumflex" unicode="&#x125;" horiz-adv-x="1307" 
d="M156 0v1524h286v-602h18c26 63.333 67.833 112.833 125.5 148.5s126.834 53.5 207.501 53.5c119.333 0 212.166 -36 278.499 -108s99.5 -174 99.5 -306v-710h-291v641c0 76 -17.333 133.667 -52 173s-85 59 -151 59c-72 0 -128.333 -21.833 -169 -65.5
s-61 -101.834 -61 -174.501v-633h-291zM435 2006l284 -335h-265l-146 187h-18l-146 -187h-265l284 335h272z" />
    <glyph glyph-name="Hbar" unicode="&#x126;" horiz-adv-x="1604" 
d="M1127 861v194h-650v-194h650zM1557 1261v-206h-128v-1055h-302v603h-650v-603h-302v1055h-128v206h128v182h302v-182h650v182h302v-182h128z" />
    <glyph glyph-name="hbar" unicode="&#x127;" horiz-adv-x="1307" 
d="M442 922l18 0.000976562c26 63.333 67.833 112.833 125.5 148.5s126.834 53.5 207.501 53.5c119.333 0 212.166 -36 278.499 -108s99.5 -174 99.5 -306v-710h-291v641c0 76 -17.333 133.667 -52 173s-85 59 -151 59c-72 0 -128.333 -21.833 -169 -65.5
s-61 -101.834 -61 -174.501v-633h-291v1255h-144v153h144v116h286v-116h233v-153h-233v-333z" />
    <glyph glyph-name="Itilde" unicode="&#x128;" horiz-adv-x="652" 
d="M477 0h-302v1443h302v-1443zM485 1577c-30 0 -57.667 4.66602 -83 13.999s-46.666 20.833 -63.999 34.5s-33.666 27.334 -48.999 41.001s-31.333 25.167 -48 34.5s-33.667 14 -51 14c-54.667 0 -83.334 -42.667 -86.001 -128h-184c0 96.667 22.667 172.334 68 227.001
s105 82 179 82c31.333 0 60.166 -4.66699 86.499 -14s48.333 -20.833 66 -34.5s34.167 -27.334 49.5 -41.001s30.833 -25.167 46.5 -34.5s31.167 -14 46.5 -14c53.333 0 82.333 41.333 87 124h183c0 -94 -22.833 -168.333 -68.5 -223s-105.167 -82 -178.5 -82z" />
    <glyph glyph-name="itilde" unicode="&#x129;" horiz-adv-x="587" 
d="M148 0v1103h291v-1103h-291zM167 1397c-57.333 0 -86.667 -47.001 -88 -141.001h-187c0 96.667 23.833 174.334 71.5 233.001s110.834 88 189.501 88c28 0 54.333 -5 79 -15s45.5 -22 62.5 -36s33 -28 48 -42s30 -26 45 -36s29.5 -15 43.5 -15c58 0 87.333 46 88 138h187
c0 -96 -23.833 -173 -71.5 -231s-110.834 -87 -189.501 -87c-28 0 -54.333 5 -79 15s-45.5 22 -62.5 36s-33 28 -48 42s-30 26 -45 36s-29.5 15 -43.5 15z" />
    <glyph glyph-name="Imacron" unicode="&#x12a;" horiz-adv-x="652" 
d="M477 0h-302v1443h302v-1443zM699 1632h-746v181h746v-181z" />
    <glyph glyph-name="imacron" unicode="&#x12b;" horiz-adv-x="587" 
d="M148 0v1103h291v-1103h-291zM662 1316h-735v180h735v-180z" />
    <glyph glyph-name="Ibreve" unicode="&#x12c;" horiz-adv-x="652" 
d="M477 0h-302v1443h302v-1443zM-74 1915h208.002c1.33301 -50 19.166 -89.833 53.499 -119.5s80.5 -44.5 138.5 -44.5s104.167 14.833 138.5 44.5s52.166 69.5 53.499 119.5h208c0 -100 -36.167 -181 -108.5 -243s-169.5 -93 -291.5 -93s-219.167 31 -291.5 93
s-108.5 143 -108.5 243z" />
    <glyph glyph-name="ibreve" unicode="&#x12d;" horiz-adv-x="587" 
d="M148 0v1103h291v-1103h-291zM-106 1602h207c1.33301 -54 19 -97.167 53 -129.5s80.333 -48.5 139 -48.5s105 16.167 139 48.5s51.667 75.5 53 129.5h208c0 -104 -36.167 -188.5 -108.5 -253.5s-169.5 -97.5 -291.5 -97.5s-219 32.5 -291 97.5s-108 149.5 -108 253.5z" />
    <glyph glyph-name="Iogonek" unicode="&#x12e;" horiz-adv-x="652" 
d="M175 1443l301.998 -0.000976562v-1443l-22 -6c-49.333 -18.667 -90.166 -43.667 -122.499 -75s-48.5 -66 -48.5 -104c0 -30.667 10.833 -55.167 32.5 -73.5s51.834 -27.5 90.501 -27.5c28 0 51 2.66699 69 8v-167c-37.333 -14 -85 -21 -143 -21
c-80.667 0 -146.5 20.833 -197.5 62.5s-76.5 95.5 -76.5 161.5c0 42.667 10.333 82.334 31 119.001s49 66.667 85 90v1476z" />
    <glyph glyph-name="iogonek" unicode="&#x12f;" horiz-adv-x="587" 
d="M294 1257c-52 0 -93.667 13.667 -125 41s-47 62.666 -47 105.999c0 44 15.667 79.5 47 106.5s73 40.5 125 40.5s93.667 -13.5 125 -40.5s47 -62.5 47 -106.5c0 -43.333 -15.833 -78.666 -47.5 -105.999s-73.167 -41 -124.5 -41zM148 -20l0.000976562 1123h291v-1103
l-32 -6c-48 -16.667 -86.833 -41 -116.5 -73s-44.5 -67.333 -44.5 -106c0 -31.333 11.167 -56 33.5 -74s52.166 -27 89.499 -27c22.667 0 45.667 2.33301 69 7v-166c-34.667 -14 -79.667 -21 -135 -21c-86 0 -154.5 21.333 -205.5 64s-76.5 97.667 -76.5 165
c0 42 11 82 33 120s53.333 70.333 94 97z" />
    <glyph glyph-name="Idotaccent" unicode="&#x130;" horiz-adv-x="652" 
d="M477 0h-302v1443h302v-1443zM326 1579c-46 0 -83.833 15 -113.5 45s-44.5 67.667 -44.5 113s14.833 83 44.5 113s67.5 45 113.5 45s83.667 -15 113 -45s44 -67.667 44 -113s-14.667 -83 -44 -113s-67 -45 -113 -45z" />
    <glyph glyph-name="dotlessi" unicode="&#x131;" horiz-adv-x="587" 
d="M148 0v1103h291v-1103h-291z" />
    <glyph glyph-name="u0132" unicode="&#x132;" horiz-adv-x="1883" 
d="M477 0h-302v1443h302v-1443zM728 424h292c1.33301 -58 19.5 -104.333 54.5 -139s81.5 -52 139.5 -52c62 0 109.5 18.5 142.5 55.5s49.5 90.833 49.5 161.5v993h302v-995c0 -154.667 -43.167 -274.167 -129.5 -358.5s-206.5 -126.5 -360.5 -126.5
c-148.667 0 -267.5 41.667 -356.5 125s-133.5 195.333 -133.5 336z" />
    <glyph glyph-name="u0133" unicode="&#x133;" horiz-adv-x="1194" 
d="M148 0v1103h291v-1103h-291zM294 1257c-52 0 -93.667 13.667 -125 41s-47 62.666 -47 105.999c0 44 15.667 79.5 47 106.5s73 40.5 125 40.5s93.667 -13.5 125 -40.5s47 -62.5 47 -106.5c0 -43.333 -15.833 -78.666 -47.5 -105.999s-73.167 -41 -124.5 -41zM1036 1103
v-1137c0 -112.667 -33 -197.834 -99 -255.501s-163 -86.5 -291 -86.5c-36 0 -62 1.33301 -78 4v223c4 -0.666992 16.333 -1 37 -1c50.667 0 86.667 9.66699 108 29s32 51 32 95v1129h291zM891 1257c-52 0 -93.667 13.667 -125 41s-47 62.666 -47 105.999
c0 44 15.667 79.5 47 106.5s73 40.5 125 40.5s93.667 -13.5 125 -40.5s47 -62.5 47 -106.5c0 -43.333 -15.833 -78.666 -47.5 -105.999s-73.167 -41 -124.5 -41z" />
    <glyph glyph-name="Jcircumflex" unicode="&#x134;" horiz-adv-x="1231" 
d="M76 424h292c1.33301 -58 19.5 -104.333 54.5 -139s81.5 -52 139.5 -52c62 0 109.5 18.5 142.5 55.5s49.5 90.833 49.5 161.5v993h302v-995c0 -154.667 -43.167 -274.167 -129.5 -358.5s-206.5 -126.5 -360.5 -126.5c-148.667 0 -267.5 41.667 -356.5 125
s-133.5 195.333 -133.5 336zM1041 1925l284 -335h-265l-146 187h-18l-146 -187h-265l284 335h272z" />
    <glyph glyph-name="jcircumflex" unicode="&#x135;" horiz-adv-x="587" 
d="M436 1103v-1137c0 -112.667 -33 -197.834 -99 -255.501s-163 -86.5 -291 -86.5c-36 0 -62 1.33301 -78 4v223c4 -0.666992 16.333 -1 37 -1c50.667 0 86.667 9.66699 108 29s32 51 32 95v1129h291zM440 1605l275 -354h-263l-148 209h-18l-149 -209h-263l275 354h291z" />
    <glyph glyph-name="Kcommaaccent" unicode="&#x136;" horiz-adv-x="1453" 
d="M477 0h-302v1443h302v-643h18l533 643h336l-526 -633l563 -810h-362l-419 604l-143 -169v-435zM696 -509h-258l132 358h292z" />
    <glyph glyph-name="kcommaaccent" unicode="&#x137;" horiz-adv-x="1232" 
d="M465 672l369 431h331l-420 -473l449 -630h-345l-322 448l-80 -82v-366h-291v1524h291v-852h18zM645 -509h-258l132 358h292z" />
    <glyph glyph-name="Lacute" unicode="&#x139;" horiz-adv-x="1218" 
d="M185 1590l277 318h315l-314 -318h-278zM1119 263v-263h-944v1443h302v-1180h642z" />
    <glyph glyph-name="lacute" unicode="&#x13a;" horiz-adv-x="603" 
d="M161 1671l277 318h315l-314 -318h-278zM156 0v1524h291v-1524h-291z" />
    <glyph glyph-name="Lcommaaccent" unicode="&#x13b;" horiz-adv-x="1218" 
d="M636 -509h-258l132 358h292zM1119 263v-263h-944v1443h302v-1180h642z" />
    <glyph glyph-name="lcommaaccent" unicode="&#x13c;" horiz-adv-x="603" 
d="M296 -509h-258l132 358h292zM156 0v1524h291v-1524h-291z" />
    <glyph glyph-name="Lcaron" unicode="&#x13d;" horiz-adv-x="1218" 
d="M675 1443h246l-50 -504h-196v504zM1119 263v-263h-944v1443h302v-1180h642z" />
    <glyph glyph-name="lcaron" unicode="&#x13e;" horiz-adv-x="804" 
d="M583 1524h251l-50 -505h-201v505zM156 0v1524h291v-1524h-291z" />
    <glyph glyph-name="Lslash" unicode="&#x141;" horiz-adv-x="1218" 
d="M477 263h642v-263h-944v661l-152 -78v205l152 78v577h302v-423l238 122v-205l-238 -122v-552z" />
    <glyph glyph-name="lslash" unicode="&#x142;" horiz-adv-x="603" 
d="M571 1094v-205l-124 -66v-823h-291v668l-124 -66v205l124 66v651h291v-496z" />
    <glyph glyph-name="Nacute" unicode="&#x143;" horiz-adv-x="1573" 
d="M642 1590l277 318h315l-314 -318h-278zM464 0h-289v1443h252l664 -899h18v899h289v-1443h-250l-666 903h-18v-903z" />
    <glyph glyph-name="nacute" unicode="&#x144;" horiz-adv-x="1285" 
d="M500 1281l247 353h309l-287 -353h-269zM146 0v1103h282v-177h18c26 63.333 66.833 112.666 122.5 147.999s123.5 53 203.5 53c122 0 215.333 -35.833 280 -107.5s97 -173.834 97 -306.501v-713h-291v644c0 154.667 -67.667 232 -203 232
c-67.333 0 -120.5 -21.833 -159.5 -65.5s-58.5 -101.834 -58.5 -174.501v-636h-291z" />
    <glyph glyph-name="Ncommaaccent" unicode="&#x145;" horiz-adv-x="1573" 
d="M777 -509h-258l132 358h292zM464 0h-289v1443h252l664 -899h18v899h289v-1443h-250l-666 903h-18v-903z" />
    <glyph glyph-name="ncommaaccent" unicode="&#x146;" horiz-adv-x="1285" 
d="M649 -509h-258l132 358h292zM146 0v1103h282v-177h18c26 63.333 66.833 112.666 122.5 147.999s123.5 53 203.5 53c122 0 215.333 -35.833 280 -107.5s97 -173.834 97 -306.501v-713h-291v644c0 154.667 -67.667 232 -203 232c-67.333 0 -120.5 -21.833 -159.5 -65.5
s-58.5 -101.834 -58.5 -174.501v-636h-291z" />
    <glyph glyph-name="Ncaron" unicode="&#x147;" horiz-adv-x="1573" 
d="M910 1590h-254l-281 318h253l145 -173h20l145 173h253zM464 0h-289v1443h252l664 -899h18v899h289v-1443h-250l-666 903h-18v-903z" />
    <glyph glyph-name="ncaron" unicode="&#x148;" horiz-adv-x="1285" 
d="M800 1251h-291l-275 354h263l149 -209h18l148 209h263zM146 0v1103h282v-177h18c26 63.333 66.833 112.666 122.5 147.999s123.5 53 203.5 53c122 0 215.333 -35.833 280 -107.5s97 -173.834 97 -306.501v-713h-291v644c0 154.667 -67.667 232 -203 232
c-67.333 0 -120.5 -21.833 -159.5 -65.5s-58.5 -101.834 -58.5 -174.501v-636h-291z" />
    <glyph glyph-name="Omacron" unicode="&#x14c;" horiz-adv-x="1610" 
d="M806 1480c213.333 0 382.166 -68 506.499 -204s186.5 -320.667 186.5 -554c0 -234 -62.167 -419 -186.5 -555s-293.166 -204 -506.499 -204c-214 0 -383.333 68 -508 204s-187 321 -187 555c0 233.333 62.667 418 188 554s294.333 204 507 204zM806 1215
c-117.333 0 -211 -44.5 -281 -133.5s-105 -208.833 -105 -359.5s34.833 -270.667 104.5 -360s163.5 -134 281.5 -134c117.333 0 210.833 44.667 280.5 134s104.5 209.333 104.5 360s-34.833 270.5 -104.5 359.5s-163.167 133.5 -280.5 133.5zM1179 1632h-746v181h746v-181z
" />
    <glyph glyph-name="omacron" unicode="&#x14d;" horiz-adv-x="1269" 
d="M1003 1316h-735v180h735v-180zM635 214c77.333 0 137.333 29.5 180 88.5s64 142.167 64 249.5c0 106 -21.5 188.667 -64.5 248s-102.833 89 -179.5 89c-77.333 0 -137.333 -29.667 -180 -89s-64 -142 -64 -248c0 -107.333 21.167 -190.5 63.5 -249.5
s102.5 -88.5 180.5 -88.5zM635 -24c-169.333 0 -302.168 51 -398.501 153s-144.5 243 -144.5 423c0 178.667 48.5 319.167 145.5 421.5s229.5 153.5 397.5 153.5s300.5 -51.167 397.5 -153.5s145.5 -242.833 145.5 -421.5c0 -180 -48.167 -321 -144.5 -423
s-229.166 -153 -398.499 -153z" />
    <glyph glyph-name="Obreve" unicode="&#x14e;" horiz-adv-x="1610" 
d="M806 1480c213.333 0 382.166 -68 506.499 -204s186.5 -320.667 186.5 -554c0 -234 -62.167 -419 -186.5 -555s-293.166 -204 -506.499 -204c-214 0 -383.333 68 -508 204s-187 321 -187 555c0 233.333 62.667 418 188 554s294.333 204 507 204zM806 1215
c-117.333 0 -211 -44.5 -281 -133.5s-105 -208.833 -105 -359.5s34.833 -270.667 104.5 -360s163.5 -134 281.5 -134c117.333 0 210.833 44.667 280.5 134s104.5 209.333 104.5 360s-34.833 270.5 -104.5 359.5s-163.167 133.5 -280.5 133.5zM406 1915h208.002
c1.33301 -50 19.166 -89.833 53.499 -119.5s80.5 -44.5 138.5 -44.5s104.167 14.833 138.5 44.5s52.166 69.5 53.499 119.5h208c0 -100 -36.167 -181 -108.5 -243s-169.5 -93 -291.5 -93s-219.167 31 -291.5 93s-108.5 143 -108.5 243z" />
    <glyph glyph-name="obreve" unicode="&#x14f;" horiz-adv-x="1269" 
d="M235 1602h207c1.33301 -54 19 -97.167 53 -129.5s80.333 -48.5 139 -48.5s105 16.167 139 48.5s51.667 75.5 53 129.5h208c0 -104 -36.167 -188.5 -108.5 -253.5s-169.5 -97.5 -291.5 -97.5s-219 32.5 -291 97.5s-108 149.5 -108 253.5zM635 214
c77.333 0 137.333 29.5 180 88.5s64 142.167 64 249.5c0 106 -21.5 188.667 -64.5 248s-102.833 89 -179.5 89c-77.333 0 -137.333 -29.667 -180 -89s-64 -142 -64 -248c0 -107.333 21.167 -190.5 63.5 -249.5s102.5 -88.5 180.5 -88.5zM635 -24
c-169.333 0 -302.168 51 -398.501 153s-144.5 243 -144.5 423c0 178.667 48.5 319.167 145.5 421.5s229.5 153.5 397.5 153.5s300.5 -51.167 397.5 -153.5s145.5 -242.833 145.5 -421.5c0 -180 -48.167 -321 -144.5 -423s-229.166 -153 -398.499 -153z" />
    <glyph glyph-name="Ohungarumlaut" unicode="&#x150;" horiz-adv-x="1610" 
d="M875 1590l252 318h270l-278 -318h-244zM438 1590l251 318h271l-278 -318h-244zM806 1480c213.333 0 382.166 -68 506.499 -204s186.5 -320.667 186.5 -554c0 -234 -62.167 -419 -186.5 -555s-293.166 -204 -506.499 -204c-214 0 -383.333 68 -508 204s-187 321 -187 555
c0 233.333 62.667 418 188 554s294.333 204 507 204zM806 1215c-117.333 0 -211 -44.5 -281 -133.5s-105 -208.833 -105 -359.5s34.833 -270.667 104.5 -360s163.5 -134 281.5 -134c117.333 0 210.833 44.667 280.5 134s104.5 209.333 104.5 360s-34.833 270.5 -104.5 359.5
s-163.167 133.5 -280.5 133.5z" />
    <glyph glyph-name="ohungarumlaut" unicode="&#x151;" horiz-adv-x="1269" 
d="M712 1281l212 353h259l-242 -353h-229zM276 1281l212 353h259l-242 -353h-229zM635 214c77.333 0 137.333 29.5 180 88.5s64 142.167 64 249.5c0 106 -21.5 188.667 -64.5 248s-102.833 89 -179.5 89c-77.333 0 -137.333 -29.667 -180 -89s-64 -142 -64 -248
c0 -107.333 21.167 -190.5 63.5 -249.5s102.5 -88.5 180.5 -88.5zM635 -24c-169.333 0 -302.168 51 -398.501 153s-144.5 243 -144.5 423c0 178.667 48.5 319.167 145.5 421.5s229.5 153.5 397.5 153.5s300.5 -51.167 397.5 -153.5s145.5 -242.833 145.5 -421.5
c0 -180 -48.167 -321 -144.5 -423s-229.166 -153 -398.499 -153z" />
    <glyph glyph-name="OE" unicode="&#x152;" horiz-adv-x="2271" 
d="M821 1215c-119.333 0 -214.333 -44.5 -285 -133.5s-106 -208.833 -106 -359.5c0 -151.333 35.167 -271.5 105.5 -360.5s165.5 -133.5 285.5 -133.5c116.667 0 209.334 44.5 278.001 133.5s103 209.167 103 360.5s-34.333 271.333 -103 360s-161.334 133 -278.001 133z
M1254 0v232h-18c-36.667 -80.667 -97.667 -145.667 -183 -195s-179.333 -74 -282 -74c-203.333 0 -362.5 67 -477.5 201s-172.5 320 -172.5 558s57.5 423.833 172.5 557.5s274.167 200.5 477.5 200.5c101.333 0 195.5 -24.5 282.5 -73.5s147.833 -111.833 182.5 -188.5h18
v225h916v-258h-663v-337h626v-239h-626v-351h663v-258h-916z" />
    <glyph glyph-name="oe" unicode="&#x153;" horiz-adv-x="2017" 
d="M1427 -24c-85.333 0 -162.833 16.5 -232.5 49.5s-123.167 78.5 -160.5 136.5h-18c-36.667 -58 -89.167 -103.5 -157.5 -136.5s-145.833 -49.5 -232.5 -49.5c-163.333 0 -292.333 51.333 -387 154s-142 242.667 -142 420c0 179.333 47.167 320.333 141.5 423
s223.833 154 388.5 154c86 0 162.5 -16.333 229.5 -49s120.5 -79.667 160.5 -141h18c38.667 60 92 106.667 160 140s145 50 231 50c152 0 273.5 -50.333 364.5 -151s136.5 -236 136.5 -406v-88h-757v-16c2 -82 25.667 -146.833 71 -194.5s105.666 -71.5 180.999 -71.5
c118 0 193 38 225 114h269c-22 -104 -77.167 -186.333 -165.5 -247s-196.166 -91 -323.499 -91zM1411 904c-67.333 0 -123 -21.499 -167 -64.499s-68.333 -100.5 -73 -172.5h470c-3.33301 73.333 -25.5 131.166 -66.5 173.499s-95.5 63.5 -163.5 63.5zM640 214.001
c77.333 0 137.333 29.333 180 88s64 141.667 64 249c0 106.667 -21.5 189.667 -64.5 249s-102.833 89 -179.5 89s-136.5 -29.667 -179.5 -89s-64.5 -142.333 -64.5 -249c0 -107.333 21.333 -190.333 64 -249s102.667 -88 180 -88z" />
    <glyph glyph-name="Racute" unicode="&#x154;" horiz-adv-x="1422" 
d="M511 1590l277 318h315l-314 -318h-278zM477 1199v-444h265c76 0 135.167 19.5 177.5 58.5s63.5 93.167 63.5 162.5c0 68.667 -22 123 -66 163s-103.333 60 -178 60h-262zM477 523v-522.999h-302v1443h606c158.667 0 283.667 -41.333 375 -124s137 -195.667 137 -339
c0 -93.333 -23.167 -176.833 -69.5 -250.5s-110.5 -126.834 -192.5 -159.501l304 -570h-342l-269 523h-247z" />
    <glyph glyph-name="racute" unicode="&#x155;" horiz-adv-x="881" 
d="M293 1281l247 353h309l-287 -353h-269zM146 0l0.000976562 1103h282v-176h18c14.667 56 48.167 102.333 100.5 139s113.166 55 182.499 55c50 0 88 -4.66699 114 -14v-265c-30.667 12 -76.667 18 -138 18c-80.667 0 -145.5 -22.333 -194.5 -67
s-73.5 -105.334 -73.5 -182.001v-611h-291z" />
    <glyph glyph-name="Rcommaaccent" unicode="&#x156;" horiz-adv-x="1422" 
d="M477 1199v-444h265c76 0 135.167 19.5 177.5 58.5s63.5 93.167 63.5 162.5c0 68.667 -22 123 -66 163s-103.333 60 -178 60h-262zM477 523v-522.999h-302v1443h606c158.667 0 283.667 -41.333 375 -124s137 -195.667 137 -339c0 -93.333 -23.167 -176.833 -69.5 -250.5
s-110.5 -126.834 -192.5 -159.501l304 -570h-342l-269 523h-247zM646 -508.999h-258l132 358h292z" />
    <glyph glyph-name="rcommaaccent" unicode="&#x157;" horiz-adv-x="881" 
d="M146 0l0.000976562 1103h282v-176h18c14.667 56 48.167 102.333 100.5 139s113.166 55 182.499 55c50 0 88 -4.66699 114 -14v-265c-30.667 12 -76.667 18 -138 18c-80.667 0 -145.5 -22.333 -194.5 -67s-73.5 -105.334 -73.5 -182.001v-611h-291zM283.001 -508.999h-258
l132 358h292z" />
    <glyph glyph-name="Rcaron" unicode="&#x158;" horiz-adv-x="1422" 
d="M477 1199v-444h265c76 0 135.167 19.5 177.5 58.5s63.5 93.167 63.5 162.5c0 68.667 -22 123 -66 163s-103.333 60 -178 60h-262zM477 523v-522.999h-302v1443h606c158.667 0 283.667 -41.333 375 -124s137 -195.667 137 -339c0 -93.333 -23.167 -176.833 -69.5 -250.5
s-110.5 -126.834 -192.5 -159.501l304 -570h-342l-269 523h-247zM779 1590h-254l-281 318h253l145 -173h20l145 173h253z" />
    <glyph glyph-name="rcaron" unicode="&#x159;" horiz-adv-x="881" 
d="M593 1251h-291l-275 354h263l149 -209h18l148 209h263zM146 0l0.000976562 1103h282v-176h18c14.667 56 48.167 102.333 100.5 139s113.166 55 182.499 55c50 0 88 -4.66699 114 -14v-265c-30.667 12 -76.667 18 -138 18c-80.667 0 -145.5 -22.333 -194.5 -67
s-73.5 -105.334 -73.5 -182.001v-611h-291z" />
    <glyph glyph-name="Sacute" unicode="&#x15a;" horiz-adv-x="1383" 
d="M555 1590l277 318h315l-314 -318h-278zM110 401l291.999 0.000976562c6.66699 -58.667 37.334 -105.334 92.001 -140.001s124.667 -52 210 -52c78.667 0 143 17.167 193 51.5s75 78.833 75 133.5c0 46 -19.333 83.333 -58 112s-102.334 52.334 -191.001 71.001l-188 40
c-261.333 54.667 -392 192 -392 412c0 136 50.333 245.167 151 327.5s234.334 123.5 401.001 123.5c158.667 0 289.167 -40.333 391.5 -121s155.833 -185.334 160.5 -314.001h-284c-7.33301 57.333 -35.333 103.333 -84 138s-109.334 52 -182.001 52
c-76 0 -136.833 -16.333 -182.5 -49s-68.5 -76.334 -68.5 -131.001c0 -44.667 18.5 -80.667 55.5 -108s97.833 -50 182.5 -68l174 -37c144.667 -30.667 250 -78.667 316 -144s99 -154 99 -266c0 -145.333 -52.167 -259.833 -156.5 -343.5s-247.166 -125.5 -428.499 -125.5
c-172 0 -310 39.333 -414 118s-158.667 185.334 -164 320.001z" />
    <glyph glyph-name="sacute" unicode="&#x15b;" horiz-adv-x="1160" 
d="M121 779c0 104.667 42.166 188.836 126.499 252.503s195.166 95.5 332.499 95.5c140 0 249.833 -28.333 329.5 -85s123.5 -137.667 131.5 -243h-269c-7.33301 36 -27.5 64.167 -60.5 84.5s-76.167 30.5 -129.5 30.5c-52.667 0 -96 -10.833 -130 -32.5
s-51 -49.834 -51 -84.501c0 -26.667 12 -48.834 36 -66.501s61.667 -32.167 113 -43.5l207 -45c107.333 -23.333 185.833 -59 235.5 -107s74.5 -113 74.5 -195c0 -109.333 -44.667 -197.333 -134 -264s-206.666 -100 -351.999 -100s-260.333 28.667 -345 86
s-132 139 -142 245h284c23.333 -78.667 93 -118 209 -118c56.667 0 102.667 10.833 138 32.5s53 50.167 53 85.5c0 27.333 -11 49.5 -33 66.5s-57.333 30.833 -106 41.5l-200 45c-107.333 23.333 -187.166 61.166 -239.499 113.499s-78.5 120.833 -78.5 205.5zM424.999 1281
l247 353h309l-287 -353h-269z" />
    <glyph glyph-name="Scircumflex" unicode="&#x15c;" horiz-adv-x="1383" 
d="M110 401l291.999 0.000976562c6.66699 -58.667 37.334 -105.334 92.001 -140.001s124.667 -52 210 -52c78.667 0 143 17.167 193 51.5s75 78.833 75 133.5c0 46 -19.333 83.333 -58 112s-102.334 52.334 -191.001 71.001l-188 40c-261.333 54.667 -392 192 -392 412
c0 136 50.333 245.167 151 327.5s234.334 123.5 401.001 123.5c158.667 0 289.167 -40.333 391.5 -121s155.833 -185.334 160.5 -314.001h-284c-7.33301 57.333 -35.333 103.333 -84 138s-109.334 52 -182.001 52c-76 0 -136.833 -16.333 -182.5 -49
s-68.5 -76.334 -68.5 -131.001c0 -44.667 18.5 -80.667 55.5 -108s97.833 -50 182.5 -68l174 -37c144.667 -30.667 250 -78.667 316 -144s99 -154 99 -266c0 -145.333 -52.167 -259.833 -156.5 -343.5s-247.166 -125.5 -428.499 -125.5c-172 0 -310 39.333 -414 118
s-158.667 185.334 -164 320.001zM831.999 1925l284 -335h-265l-146 187h-18l-146 -187h-265l284 335h272z" />
    <glyph glyph-name="scircumflex" unicode="&#x15d;" horiz-adv-x="1160" 
d="M725 1605l275 -354h-263l-148 209h-18l-149 -209h-263l275 354h291zM121 779c0 104.667 42.166 188.836 126.499 252.503s195.166 95.5 332.499 95.5c140 0 249.833 -28.333 329.5 -85s123.5 -137.667 131.5 -243h-269c-7.33301 36 -27.5 64.167 -60.5 84.5
s-76.167 30.5 -129.5 30.5c-52.667 0 -96 -10.833 -130 -32.5s-51 -49.834 -51 -84.501c0 -26.667 12 -48.834 36 -66.501s61.667 -32.167 113 -43.5l207 -45c107.333 -23.333 185.833 -59 235.5 -107s74.5 -113 74.5 -195c0 -109.333 -44.667 -197.333 -134 -264
s-206.666 -100 -351.999 -100s-260.333 28.667 -345 86s-132 139 -142 245h284c23.333 -78.667 93 -118 209 -118c56.667 0 102.667 10.833 138 32.5s53 50.167 53 85.5c0 27.333 -11 49.5 -33 66.5s-57.333 30.833 -106 41.5l-200 45
c-107.333 23.333 -187.166 61.166 -239.499 113.499s-78.5 120.833 -78.5 205.5z" />
    <glyph glyph-name="Scedilla" unicode="&#x15e;" horiz-adv-x="1383" 
d="M684 879l174 -36.999c144.667 -30.667 250 -78.667 316 -144s99 -154 99 -266c0 -133.333 -44.333 -241 -133 -323s-211 -129.667 -367 -143l-33 -79c63.333 -3.33301 111.833 -20.166 145.5 -50.499s50.5 -72.5 50.5 -126.5c0 -64 -23.333 -114 -70 -150
s-112.334 -54 -197.001 -54c-56 0 -105 5.66699 -147 17v135c24.667 -9.33301 63.334 -14 116.001 -14c74.667 0 112 19.667 112 59c0 19.333 -10.167 33.5 -30.5 42.5s-53.5 13.5 -99.5 13.5h-60v115l39 93c-146.667 13.333 -263.667 58.5 -351 135.5
s-133.333 176.5 -138 298.5h292c6.66699 -58.667 37.334 -105.334 92.001 -140.001s124.667 -52 210 -52c78.667 0 143 17.167 193 51.5s75 78.833 75 133.5c0 46 -19.333 83.333 -58 112s-102.334 52.334 -191.001 71.001l-188 40c-261.333 54.667 -392 192 -392 412
c0 136 50.333 245.167 151 327.5s234.334 123.5 401.001 123.5c158.667 0 289.167 -40.333 391.5 -121s155.833 -185.334 160.5 -314.001h-284c-7.33301 57.333 -35.333 103.333 -84 138s-109.334 52 -182.001 52c-76 0 -136.833 -16.333 -182.5 -49
s-68.5 -76.334 -68.5 -131.001c0 -44.667 18.5 -80.667 55.5 -108s97.833 -50 182.5 -68z" />
    <glyph glyph-name="scedilla" unicode="&#x15f;" horiz-adv-x="1160" 
d="M550 687l207.003 -45.001c107.333 -23.333 185.833 -59 235.5 -107s74.5 -113 74.5 -195c0 -97.333 -35.833 -178.166 -107.5 -242.499s-167.834 -103.166 -288.501 -116.499l-38 -93c63.333 -3.33301 111.833 -20.166 145.5 -50.499s50.5 -72.5 50.5 -126.5
c0 -64 -23.333 -114 -70 -150s-112.334 -54 -197.001 -54c-56 0 -105 5.66699 -147 17v135c24.667 -9.33301 63.334 -14 116.001 -14c74.667 0 112 19.667 112 59c0 19.333 -10.167 33.5 -30.5 42.5s-53.5 13.5 -99.5 13.5h-60v115l44 105
c-120.667 10.667 -215.834 44 -285.501 100s-108.834 131.667 -117.501 227h284c23.333 -78.667 93 -118 209 -118c56.667 0 102.667 10.833 138 32.5s53 50.167 53 85.5c0 27.333 -11 49.5 -33 66.5s-57.333 30.833 -106 41.5l-200 45
c-107.333 23.333 -187.166 61.166 -239.499 113.499s-78.5 120.833 -78.5 205.5c0 104.667 42.167 188.834 126.5 252.501s195.166 95.5 332.499 95.5c140 0 249.833 -28.333 329.5 -85s123.5 -137.667 131.5 -243h-269c-7.33301 36 -27.5 64.167 -60.5 84.5
s-76.167 30.5 -129.5 30.5c-52.667 0 -96 -10.833 -130 -32.5s-51 -49.834 -51 -84.501c0 -26.667 12 -48.834 36 -66.501s61.667 -32.167 113 -43.5z" />
    <glyph glyph-name="Scaron" unicode="&#x160;" horiz-adv-x="1383" 
d="M110 401l291.999 0.000976562c6.66699 -58.667 37.334 -105.334 92.001 -140.001s124.667 -52 210 -52c78.667 0 143 17.167 193 51.5s75 78.833 75 133.5c0 46 -19.333 83.333 -58 112s-102.334 52.334 -191.001 71.001l-188 40c-261.333 54.667 -392 192 -392 412
c0 136 50.333 245.167 151 327.5s234.334 123.5 401.001 123.5c158.667 0 289.167 -40.333 391.5 -121s155.833 -185.334 160.5 -314.001h-284c-7.33301 57.333 -35.333 103.333 -84 138s-109.334 52 -182.001 52c-76 0 -136.833 -16.333 -182.5 -49
s-68.5 -76.334 -68.5 -131.001c0 -44.667 18.5 -80.667 55.5 -108s97.833 -50 182.5 -68l174 -37c144.667 -30.667 250 -78.667 316 -144s99 -154 99 -266c0 -145.333 -52.167 -259.833 -156.5 -343.5s-247.166 -125.5 -428.499 -125.5c-172 0 -310 39.333 -414 118
s-158.667 185.334 -164 320.001zM822.999 1590h-254l-281 318h253l145 -173h20l145 173h253z" />
    <glyph glyph-name="scaron" unicode="&#x161;" horiz-adv-x="1160" 
d="M725 1251h-291l-275 354h263l149 -209h18l148 209h263zM121 779c0 104.667 42.166 188.836 126.499 252.503s195.166 95.5 332.499 95.5c140 0 249.833 -28.333 329.5 -85s123.5 -137.667 131.5 -243h-269c-7.33301 36 -27.5 64.167 -60.5 84.5s-76.167 30.5 -129.5 30.5
c-52.667 0 -96 -10.833 -130 -32.5s-51 -49.834 -51 -84.501c0 -26.667 12 -48.834 36 -66.501s61.667 -32.167 113 -43.5l207 -45c107.333 -23.333 185.833 -59 235.5 -107s74.5 -113 74.5 -195c0 -109.333 -44.667 -197.333 -134 -264s-206.666 -100 -351.999 -100
s-260.333 28.667 -345 86s-132 139 -142 245h284c23.333 -78.667 93 -118 209 -118c56.667 0 102.667 10.833 138 32.5s53 50.167 53 85.5c0 27.333 -11 49.5 -33 66.5s-57.333 30.833 -106 41.5l-200 45c-107.333 23.333 -187.166 61.166 -239.499 113.499
s-78.5 120.833 -78.5 205.5z" />
    <glyph glyph-name="Tcedilla" unicode="&#x162;" horiz-adv-x="1352" 
d="M827 0l-53 -0.000976562l-46 -112c63.333 -3.33301 111.833 -20.166 145.5 -50.499s50.5 -72.5 50.5 -126.5c0 -64 -23.333 -114 -70 -150s-112.334 -54 -197.001 -54c-56 0 -105 5.66699 -147 17v135c24.667 -9.33301 63.334 -14 116.001 -14
c74.667 0 112 19.667 112 59c0 19.333 -10.167 33.5 -30.5 42.5s-53.5 13.5 -99.5 13.5h-60v115l52 125h-75v1185h-433v258h1168v-258h-433v-1185z" />
    <glyph glyph-name="tcedilla" unicode="&#x163;" horiz-adv-x="845" 
d="M463 -493c-60 0 -109.001 5.66602 -147.001 16.999v134c28 -9.33301 66.667 -14 116 -14c74.667 0 112 19.667 112 59c0 20 -10.167 34.333 -30.5 43s-53.5 13 -99.5 13h-60v116l60 144c-64.667 18 -111.667 49.5 -141 94.5s-44 106.5 -44 184.5v565h-172v229h172v273
h291v-273h229v-229h-229v-496c0 -48 11.5 -83.333 34.5 -106s59.167 -34 108.5 -34c32 0 60.333 1.33301 85 4v-222c-44.667 -8.66699 -92 -13 -142 -13c-3.33301 0 -8 0.166992 -14 0.5s-10.333 0.5 -13 0.5l-45 -109c63.333 -3.33301 111.833 -20.166 145.5 -50.499
s50.5 -72.5 50.5 -126.5c0 -64 -23.167 -114 -69.5 -150s-112.166 -54 -197.499 -54z" />
    <glyph glyph-name="Tcaron" unicode="&#x164;" horiz-adv-x="1352" 
d="M800 1590h-254l-281 318h253l145 -173h20l145 173h253zM827 0h-302v1185h-433v258h1168v-258h-433v-1185z" />
    <glyph glyph-name="tcaron" unicode="&#x165;" horiz-adv-x="845" 
d="M824 1231h-201v504h251zM229 1365h291v-273h229v-229h-229v-496c0 -48 11.5 -83.333 34.5 -106s59.167 -34 108.5 -34c32.667 0 61.334 1.33301 86.001 4v-222c-44.667 -8.66699 -93.334 -13 -146.001 -13c-134 0 -229.833 23.333 -287.5 70s-86.5 124 -86.5 232v565
h-172v229h172v273z" />
    <glyph glyph-name="Tbar" unicode="&#x166;" horiz-adv-x="1352" 
d="M1260 1185h-433v-384h281v-218h-281v-583h-302v583h-286v218h286v384h-433v258h1168v-258z" />
    <glyph glyph-name="tbar" unicode="&#x167;" horiz-adv-x="843" 
d="M763 492h-243v-125c0 -48 11.5 -83.333 34.5 -106s59.167 -34 108.5 -34c32.667 0 61.334 1.33301 86.001 4v-222c-44.667 -8.66699 -93.334 -13 -146.001 -13c-134 0 -229.833 23.333 -287.5 70s-86.5 124 -86.5 232v194h-173v162h173v209h-172v229h172v273h291v-273
h229v-229h-229v-209h243v-162z" />
    <glyph glyph-name="Utilde" unicode="&#x168;" horiz-adv-x="1565" 
d="M480 1443v-914c0 -92 26.5 -164.667 79.5 -218s127.167 -80 222.5 -80c96 0 170.5 26.667 223.5 80s79.5 126 79.5 218v914h302v-945c0 -160.667 -54.833 -290 -164.5 -388s-256.5 -147 -440.5 -147c-183.333 0 -329.833 49 -439.5 147s-164.5 227.333 -164.5 388v945
h302zM941 1577c-30 0 -57.667 4.66602 -83 13.999s-46.666 20.833 -63.999 34.5s-33.666 27.334 -48.999 41.001s-31.333 25.167 -48 34.5s-33.667 14 -51 14c-54.667 0 -83.334 -42.667 -86.001 -128h-184c0 96.667 22.667 172.334 68 227.001s105 82 179 82
c31.333 0 60.166 -4.66699 86.499 -14s48.333 -20.833 66 -34.5s34.167 -27.334 49.5 -41.001s30.833 -25.167 46.5 -34.5s31.167 -14 46.5 -14c53.333 0 82.333 41.333 87 124h183c0 -94 -22.833 -168.333 -68.5 -223s-105.167 -82 -178.5 -82z" />
    <glyph glyph-name="utilde" unicode="&#x169;" horiz-adv-x="1290" 
d="M1144 1103v-1103h-282v177h-18c-54.667 -134 -162 -201 -322 -201c-119.333 0 -213.5 36.167 -282.5 108.5s-103.5 172.166 -103.5 299.499v719h291v-644c0 -153.333 67.667 -230 203 -230c71.333 0 126.333 21 165 63s58 100.333 58 175v636h291zM513 1397
c-57.333 0 -86.667 -47.001 -88 -141.001h-187c0 96.667 23.833 174.334 71.5 233.001s110.834 88 189.501 88c28 0 54.333 -5 79 -15s45.5 -22 62.5 -36s33 -28 48 -42s30 -26 45 -36s29.5 -15 43.5 -15c58 0 87.333 46 88 138h187c0 -96 -23.833 -173 -71.5 -231
s-110.834 -87 -189.501 -87c-28 0 -54.333 5 -79 15s-45.5 22 -62.5 36s-33 28 -48 42s-30 26 -45 36s-29.5 15 -43.5 15z" />
    <glyph glyph-name="Umacron" unicode="&#x16a;" horiz-adv-x="1565" 
d="M480 1443v-914c0 -92 26.5 -164.667 79.5 -218s127.167 -80 222.5 -80c96 0 170.5 26.667 223.5 80s79.5 126 79.5 218v914h302v-945c0 -160.667 -54.833 -290 -164.5 -388s-256.5 -147 -440.5 -147c-183.333 0 -329.833 49 -439.5 147s-164.5 227.333 -164.5 388v945
h302zM1155 1632h-746v181h746v-181z" />
    <glyph glyph-name="umacron" unicode="&#x16b;" horiz-adv-x="1290" 
d="M1144 1103v-1103h-282v177h-18c-54.667 -134 -162 -201 -322 -201c-119.333 0 -213.5 36.167 -282.5 108.5s-103.5 172.166 -103.5 299.499v719h291v-644c0 -153.333 67.667 -230 203 -230c71.333 0 126.333 21 165 63s58 100.333 58 175v636h291zM1008 1316h-735v180
h735v-180z" />
    <glyph glyph-name="Ubreve" unicode="&#x16c;" horiz-adv-x="1565" 
d="M480 1443v-914c0 -92 26.5 -164.667 79.5 -218s127.167 -80 222.5 -80c96 0 170.5 26.667 223.5 80s79.5 126 79.5 218v914h302v-945c0 -160.667 -54.833 -290 -164.5 -388s-256.5 -147 -440.5 -147c-183.333 0 -329.833 49 -439.5 147s-164.5 227.333 -164.5 388v945
h302zM382 1915h208.002c1.33301 -50 19.166 -89.833 53.499 -119.5s80.5 -44.5 138.5 -44.5s104.167 14.833 138.5 44.5s52.166 69.5 53.499 119.5h208c0 -100 -36.167 -181 -108.5 -243s-169.5 -93 -291.5 -93s-219.167 31 -291.5 93s-108.5 143 -108.5 243z" />
    <glyph glyph-name="ubreve" unicode="&#x16d;" horiz-adv-x="1290" 
d="M1144 1103v-1103h-282v177h-18c-54.667 -134 -162 -201 -322 -201c-119.333 0 -213.5 36.167 -282.5 108.5s-103.5 172.166 -103.5 299.499v719h291v-644c0 -153.333 67.667 -230 203 -230c71.333 0 126.333 21 165 63s58 100.333 58 175v636h291zM240 1602h207
c1.33301 -54 19 -97.167 53 -129.5s80.333 -48.5 139 -48.5s105 16.167 139 48.5s51.667 75.5 53 129.5h208c0 -104 -36.167 -188.5 -108.5 -253.5s-169.5 -97.5 -291.5 -97.5s-219 32.5 -291 97.5s-108 149.5 -108 253.5z" />
    <glyph glyph-name="Uring" unicode="&#x16e;" horiz-adv-x="1565" 
d="M783 1546c-59.333 0 -108.5 18.833 -147.5 56.5s-58.5 85.5 -58.5 143.5c0 57.333 19.5 104.833 58.5 142.5s88.167 56.5 147.5 56.5c58 0 106.5 -18.833 145.5 -56.5s58.5 -85.167 58.5 -142.5c0 -58 -19.5 -105.833 -58.5 -143.5s-87.5 -56.5 -145.5 -56.5zM782 1652
c28 0 50.833 8.83301 68.5 26.5s26.5 39.834 26.5 66.501c0 27.333 -9 49.833 -27 67.5s-40.667 26.5 -68 26.5s-50 -8.83301 -68 -26.5s-27 -40.167 -27 -67.5c0 -26.667 9 -48.834 27 -66.501s40.667 -26.5 68 -26.5zM480 1443v-914c0 -92 26.5 -164.667 79.5 -218
s127.167 -80 222.5 -80c96 0 170.5 26.667 223.5 80s79.5 126 79.5 218v914h302v-945c0 -160.667 -54.833 -290 -164.5 -388s-256.5 -147 -440.5 -147c-183.333 0 -329.833 49 -439.5 147s-164.5 227.333 -164.5 388v945h302z" />
    <glyph glyph-name="uring" unicode="&#x16f;" horiz-adv-x="1290" 
d="M1144 1103v-1103h-282v177h-18c-54.667 -134 -162 -201 -322 -201c-119.333 0 -213.5 36.167 -282.5 108.5s-103.5 172.166 -103.5 299.499v719h291v-644c0 -153.333 67.667 -230 203 -230c71.333 0 126.333 21 165 63s58 100.333 58 175v636h291zM640 1251
c-70 0 -128.5 22.833 -175.5 68.5s-70.5 103.167 -70.5 172.5c0 68 23.5 124.667 70.5 170s105.5 68 175.5 68s128.333 -22.5 175 -67.5s70 -101.833 70 -170.5c0 -69.333 -23.333 -126.833 -70 -172.5s-105 -68.5 -175 -68.5zM640 1387c30.667 0 55.833 9.83301 75.5 29.5
s29.5 44.5 29.5 74.5c0 29.333 -10 53.833 -30 73.5s-45 29.5 -75 29.5c-30.667 0 -56 -9.83301 -76 -29.5s-30 -44.167 -30 -73.5c0 -30.667 10 -55.667 30 -75s45.333 -29 76 -29z" />
    <glyph glyph-name="Uhungarumlaut" unicode="&#x170;" horiz-adv-x="1565" 
d="M480 1443v-914c0 -92 26.5 -164.667 79.5 -218s127.167 -80 222.5 -80c96 0 170.5 26.667 223.5 80s79.5 126 79.5 218v914h302v-945c0 -160.667 -54.833 -290 -164.5 -388s-256.5 -147 -440.5 -147c-183.333 0 -329.833 49 -439.5 147s-164.5 227.333 -164.5 388v945
h302zM851 1590l252 318h270l-278 -318h-244zM414 1590l251 318h271l-278 -318h-244z" />
    <glyph glyph-name="uhungarumlaut" unicode="&#x171;" horiz-adv-x="1290" 
d="M717 1281l212 353h259l-242 -353h-229zM281 1281l212 353h259l-242 -353h-229zM1144 1103v-1103h-282v177h-18c-54.667 -134 -162 -201 -322 -201c-119.333 0 -213.5 36.167 -282.5 108.5s-103.5 172.166 -103.5 299.499v719h291v-644c0 -153.333 67.667 -230 203 -230
c71.333 0 126.333 21 165 63s58 100.333 58 175v636h291z" />
    <glyph glyph-name="Uogonek" unicode="&#x172;" horiz-adv-x="1564" 
d="M1056 -466c-82 0 -148.334 20.499 -199.001 61.499s-76 93.167 -76 156.5c0 45.333 12.833 86.833 38.5 124.5s56.834 67.167 93.501 88.5v18c-30 -13.333 -73.667 -20 -131 -20c-181.333 0 -327.333 48.667 -438 146s-166 227 -166 389v945h302v-914
c0 -93.333 26.833 -166.333 80.5 -219s127.5 -79 221.5 -79s168 26.333 222 79s81 125.667 81 219v914h302v-945c0 -174.667 -80.333 -330 -241 -466c-92.667 -79.333 -139 -151.666 -139 -216.999c0 -30.667 10.667 -55.167 32 -73.5s50 -27.5 86 -27.5
c31.333 0 54.333 2.66699 69 8v-167c-36 -14 -82 -21 -138 -21z" />
    <glyph glyph-name="uogonek" unicode="&#x173;" horiz-adv-x="1290" 
d="M696 -242c0 48.667 15.667 94.6709 47 138.004s71 75.666 119 96.999v184h-18c-54.667 -134 -162 -201 -322 -201c-119.333 0 -213.5 36.167 -282.5 108.5s-103.5 172.166 -103.5 299.499v719h291v-644c0 -153.333 67.667 -230 203 -230c71.333 0 126.333 21 165 63
s58 100.333 58 175v636h291v-1103l-36 -7c-54 -14 -98.667 -37.833 -134 -71.5s-53 -70.834 -53 -111.501c0 -28.667 10.333 -51.834 31 -69.501s49.667 -26.5 87 -26.5c33.333 0 56.333 2.66699 69 8v-167c-38 -14 -84 -21 -138 -21c-80.667 0 -146.5 20.833 -197.5 62.5
s-76.5 95.5 -76.5 161.5z" />
    <glyph glyph-name="Wcircumflex" unicode="&#x174;" horiz-adv-x="2067" 
d="M1170 1925l284 -335h-265l-146 187h-18l-146 -187h-265l284 335h272zM1025 955l-270 -955h-285l-382 1443h314l225 -1017h16l263 1017h255l268 -1017h16l223 1017h312l-383 -1443h-283l-273 955h-16z" />
    <glyph glyph-name="wcircumflex" unicode="&#x175;" horiz-adv-x="1735" 
d="M1015 1605l275 -354h-263l-148 209h-18l-149 -209h-263l275 354h291zM1674 1103l-293 -1103h-310l-197 761h-18l-195 -761h-306l-294 1103h295l164 -791h18l193 791h278l194 -791h18l164 791h289z" />
    <glyph glyph-name="Ycircumflex" unicode="&#x176;" horiz-adv-x="1452" 
d="M877 0h-302v531l-503 912h327l318 -604h18l317 604h327l-502 -912v-531zM862 1925l284 -335h-265l-146 187h-18l-146 -187h-265l284 335h272z" />
    <glyph glyph-name="ycircumflex" unicode="&#x177;" horiz-adv-x="1223" 
d="M283 -401c-62 0 -98.998 0.999023 -110.998 2.99902v234c6.66699 -1.33301 28.667 -2 66 -2c55.333 0 98.666 9.5 129.999 28.5s53 49.167 65 90.5l10 40l-387 1110h321l232 -836h18l232 836h308l-380 -1120c-46.667 -141.333 -107.834 -240.666 -183.501 -297.999
s-182.5 -86 -320.5 -86zM761.002 1605l275 -354h-263l-148 209h-18l-149 -209h-263l275 354h291z" />
    <glyph glyph-name="Ydieresis" unicode="&#x178;" horiz-adv-x="1452" 
d="M877 0h-302v531l-503 912h327l318 -604h18l317 604h327l-502 -912v-531zM492 1579c-44.667 0 -81.667 14.333 -111 43s-44 65 -44 109s14.5 80.167 43.5 108.5s66.167 42.5 111.5 42.5s82.5 -14.167 111.5 -42.5s43.5 -64.5 43.5 -108.5s-14.667 -80.333 -44 -109
s-66.333 -43 -111 -43zM960 1579c-44.667 0 -81.667 14.333 -111 43s-44 65 -44 109s14.667 80.167 44 108.5s66.333 42.5 111 42.5c45.333 0 82.666 -14.167 111.999 -42.5s44 -64.5 44 -108.5s-14.667 -80.333 -44 -109s-66.666 -43 -111.999 -43z" />
    <glyph glyph-name="Zacute" unicode="&#x179;" horiz-adv-x="1384" 
d="M551 1590l277 318h315l-314 -318h-278zM135 0v204l726 963v18h-709v258h1077v-203l-724 -964v-18h744v-258h-1114z" />
    <glyph glyph-name="zacute" unicode="&#x17a;" horiz-adv-x="1160" 
d="M422 1281l247 353h309l-287 -353h-269zM121 0v172l558 681v18h-550v232h898v-192l-526 -661v-18h539v-232h-919z" />
    <glyph glyph-name="Zdotaccent" unicode="&#x17b;" horiz-adv-x="1384" 
d="M692 1579c-46 0 -83.833 15 -113.5 45s-44.5 67.667 -44.5 113s14.833 83 44.5 113s67.5 45 113.5 45s83.667 -15 113 -45s44 -67.667 44 -113s-14.667 -83 -44 -113s-67 -45 -113 -45zM135 0v204l726 963v18h-709v258h1077v-203l-724 -964v-18h744v-258h-1114z" />
    <glyph glyph-name="zdotaccent" unicode="&#x17c;" horiz-adv-x="1160" 
d="M577 1278c-46.667 0 -85.167 15.167 -115.5 45.5s-45.5 68.5 -45.5 114.5s15.167 84.333 45.5 115s68.833 46 115.5 46s85.167 -15.333 115.5 -46s45.5 -69 45.5 -115s-15.167 -84.167 -45.5 -114.5s-68.833 -45.5 -115.5 -45.5zM121 0v172l558 681v18h-550v232h898v-192
l-526 -661v-18h539v-232h-919z" />
    <glyph glyph-name="Zcaron" unicode="&#x17d;" horiz-adv-x="1384" 
d="M135 0v204l726 963v18h-709v258h1077v-203l-724 -964v-18h744v-258h-1114zM819 1590h-254l-281 318h253l145 -173h20l145 173h253z" />
    <glyph glyph-name="zcaron" unicode="&#x17e;" horiz-adv-x="1160" 
d="M722 1251h-291l-275 354h263l149 -209h18l148 209h263zM121 0v172l558 681v18h-550v232h898v-192l-526 -661v-18h539v-232h-919z" />
    <glyph glyph-name="florin" unicode="&#x192;" horiz-adv-x="1415" 
d="M323 -24c-80.667 0 -152.666 7.66797 -215.999 23.001v246c58 -17.333 117.667 -26 179 -26c60 0 108.5 15 145.5 45s60.167 75 69.5 135l41 256h-317v217h350l29 188c42 266 207 399 495 399c80.667 0 148 -5 202 -15v-245c-44 12 -100 18 -168 18
c-68.667 0 -121.834 -15.667 -159.501 -47s-61.5 -79 -71.5 -143l-24 -155h349v-217h-383l-42 -271c-22 -140.667 -72.167 -243.834 -150.5 -309.501s-187.833 -98.5 -328.5 -98.5z" />
    <glyph glyph-name="Ohorn" unicode="&#x1a0;" horiz-adv-x="1665" 
d="M1499 722c0 -234 -62.166 -419 -186.499 -555s-293.166 -204 -506.499 -204c-214 0 -383.333 68 -508 204s-187 321 -187 555c0 233.333 62.667 418 188 554s294.333 204 507 204c59.333 0 133.166 -8.5 221.499 -25.5s158.5 -25.5 210.5 -25.5
c38 0 65.5 7.33301 82.5 22s25.5 37 25.5 67v165h231v-235c0 -66 -18.333 -117.333 -55 -154s-87.334 -55 -152.001 -55h-61v-16c56.667 -42.667 102.5 -110 137.5 -202s52.5 -191.667 52.5 -299zM806.001 1215c-117.333 0 -211 -44.5 -281 -133.5
s-105 -208.833 -105 -359.5s34.833 -270.667 104.5 -360s163.5 -134 281.5 -134c117.333 0 210.833 44.667 280.5 134s104.5 209.333 104.5 360s-34.833 270.5 -104.5 359.5s-163.167 133.5 -280.5 133.5z" />
    <glyph glyph-name="ohorn" unicode="&#x1a1;" horiz-adv-x="1368" 
d="M1178 552c0 -180.667 -47.999 -321.835 -143.999 -423.502s-229 -152.5 -399 -152.5s-303 51 -399 153s-144 243 -144 423c0 178 48.5 318.333 145.5 421s229.5 154 397.5 154c50.667 0 104.334 -6.16699 161.001 -18.5s100.667 -18.5 132 -18.5
c40.667 0 69.167 6.33301 85.5 19s24.5 34.334 24.5 65.001v146h231v-223c0 -61.333 -15.833 -108.666 -47.5 -141.999s-75.834 -50 -132.501 -50h-46v-15c39.333 -26 71.666 -70.5 96.999 -133.5s38 -131.167 38 -204.5zM635.001 213.999c77.333 0 137.333 29.5 180 88.5
s64 142.167 64 249.5c0 106 -21.5 188.667 -64.5 248s-102.833 89 -179.5 89s-136.5 -29.667 -179.5 -89s-64.5 -142 -64.5 -248c0 -107.333 21.333 -190.5 64 -249.5s102.667 -88.5 180 -88.5z" />
    <glyph glyph-name="Uhorn" unicode="&#x1af;" horiz-adv-x="1750" 
d="M782 -37c-182 0 -328.167 48.668 -438.5 146.001s-165.5 227 -165.5 389v945h302v-914c0 -92.667 26.833 -165.5 80.5 -218.5s127.5 -79.5 221.5 -79.5s168 26.333 222 79s81 125.667 81 219v914h313c52.667 0 79 25.333 79 76v184h231v-244
c0 -68.667 -20.333 -121.834 -61 -159.501s-96 -56.5 -166 -56.5h-94v-745c0 -162 -55.167 -291.667 -165.5 -389s-256.833 -146 -439.5 -146z" />
    <glyph glyph-name="uhorn" unicode="&#x1b0;" horiz-adv-x="1508" 
d="M522 -24c-120.667 0 -215.167 36.501 -283.5 109.501s-102.5 172.5 -102.5 298.5v719h291v-644c0 -153.333 67.667 -230 203 -230c71.333 0 126.333 21 165 63s58 100.333 58 175v636h291c52.667 0 79 25.333 79 76v159h231v-219
c0 -68.667 -20.333 -121.834 -61 -159.501s-96 -56.5 -166 -56.5h-83v-903h-282v177h-18c-54.667 -134 -162 -201 -322 -201z" />
    <glyph glyph-name="u01C4" unicode="&#x1c4;" horiz-adv-x="2924" 
d="M175 1444h568c214.667 0 381.167 -62.167 499.5 -186.5s177.5 -299.5 177.5 -525.5c0 -234 -58.833 -414.5 -176.5 -541.5s-284.5 -190.5 -500.5 -190.5h-568v1444zM477 1186l-0.000976562 -927.999h218c134 0 237 40.167 309 120.5s108 196.5 108 348.5
c0 145.333 -36.667 258.166 -110 338.499s-175.666 120.5 -306.999 120.5h-218zM1675 0.000976562v204l726 963v18h-709v258h1077v-203l-724 -964v-18h744v-258h-1114zM2359 1590h-254l-281 318h253l145 -173h20l145 173h253z" />
    <glyph glyph-name="u01C5" unicode="&#x1c5;" horiz-adv-x="2700" 
d="M175 1444h568c214.667 0 381.167 -62.167 499.5 -186.5s177.5 -299.5 177.5 -525.5c0 -234 -58.833 -414.5 -176.5 -541.5s-284.5 -190.5 -500.5 -190.5h-568v1444zM477 1186l-0.000976562 -927.999h218c134 0 237 40.167 309 120.5s108 196.5 108 348.5
c0 145.333 -36.667 258.166 -110 338.499s-175.666 120.5 -306.999 120.5h-218zM2262 1251h-291l-275 354h263l149 -209h18l148 209h263zM1661 0.000976562v172l558 681v18h-550v232h898v-192l-526 -661v-18h539v-232h-919z" />
    <glyph glyph-name="u01C6" unicode="&#x1c6;" horiz-adv-x="2503" 
d="M541 -17c-138.667 0 -248.168 51 -328.501 153s-120.5 241 -120.5 417c0 175.333 40.167 313.833 120.5 415.5s189.833 152.5 328.5 152.5c74.667 0 141 -17.167 199 -51.5s101.333 -81.833 130 -142.5h17v597h291v-1524h-282v173h-18
c-29.333 -59.333 -73.666 -105.833 -132.999 -139.5s-127.333 -50.5 -204 -50.5zM639.999 877c-77.333 0 -138.167 -28.833 -182.5 -86.5s-66.5 -137.167 -66.5 -238.5c0 -102 22 -181.833 66 -239.5s105 -86.5 183 -86.5s139.167 28.833 183.5 86.5
s66.5 137.167 66.5 238.5c0 100.667 -22.333 180.167 -67 238.5s-105.667 87.5 -183 87.5zM2065 1251h-291l-275 354h263l149 -209h18l148 209h263zM1464 0v172l558 681v18h-550v232h898v-192l-526 -661v-18h539v-232h-919z" />
    <glyph glyph-name="u01C7" unicode="&#x1c7;" horiz-adv-x="2444" 
d="M1289 424h292c1.33301 -58 19.5 -104.333 54.5 -139s81.5 -52 139.5 -52c62 0 109.5 18.5 142.5 55.5s49.5 90.833 49.5 161.5v993h302v-995c0 -154.667 -43.167 -274.167 -129.5 -358.5s-206.5 -126.5 -360.5 -126.5c-148.667 0 -267.5 41.667 -356.5 125
s-133.5 195.333 -133.5 336zM1119 263v-263h-944v1443h302v-1180h642z" />
    <glyph glyph-name="u01C8" unicode="&#x1c8;" horiz-adv-x="1810" 
d="M1652 1103v-1137c0 -112.667 -33 -197.834 -99 -255.501s-163 -86.5 -291 -86.5c-36 0 -62 1.33301 -78 4v223c4 -0.666992 16.333 -1 37 -1c50.667 0 86.667 9.66699 108 29s32 51 32 95v1129h291zM1507 1257c-52 0 -93.667 13.667 -125 41s-47 62.666 -47 105.999
c0 44 15.667 79.5 47 106.5s73 40.5 125 40.5s93.667 -13.5 125 -40.5s47 -62.5 47 -106.5c0 -43.333 -15.833 -78.666 -47.5 -105.999s-73.167 -41 -124.5 -41zM1119 263.001v-263h-944v1443h302v-1180h642z" />
    <glyph glyph-name="u01C9" unicode="&#x1c9;" horiz-adv-x="1194" 
d="M1036 1103v-1137c0 -112.667 -33 -197.834 -99 -255.501s-163 -86.5 -291 -86.5c-36 0 -62 1.33301 -78 4v223c4 -0.666992 16.333 -1 37 -1c50.667 0 86.667 9.66699 108 29s32 51 32 95v1129h291zM891 1257c-52 0 -93.667 13.667 -125 41s-47 62.666 -47 105.999
c0 44 15.667 79.5 47 106.5s73 40.5 125 40.5s93.667 -13.5 125 -40.5s47 -62.5 47 -106.5c0 -43.333 -15.833 -78.666 -47.5 -105.999s-73.167 -41 -124.5 -41zM156 0.000976562v1524h291v-1524h-291z" />
    <glyph glyph-name="u01CA" unicode="&#x1ca;" horiz-adv-x="2804" 
d="M1649 424h292c1.33301 -58 19.5 -104.333 54.5 -139s81.5 -52 139.5 -52c62 0 109.5 18.5 142.5 55.5s49.5 90.833 49.5 161.5v993h302v-995c0 -154.667 -43.167 -274.167 -129.5 -358.5s-206.5 -126.5 -360.5 -126.5c-148.667 0 -267.5 41.667 -356.5 125
s-133.5 195.333 -133.5 336zM464 0h-289v1443h252l664 -899h18v899h289v-1443h-250l-666 903h-18v-903z" />
    <glyph glyph-name="u01CB" unicode="&#x1cb;" horiz-adv-x="2170" 
d="M2012 1103v-1137c0 -112.667 -33 -197.834 -99 -255.501s-163 -86.5 -291 -86.5c-36 0 -62 1.33301 -78 4v223c4 -0.666992 16.333 -1 37 -1c50.667 0 86.667 9.66699 108 29s32 51 32 95v1129h291zM1867 1257c-52 0 -93.667 13.667 -125 41s-47 62.666 -47 105.999
c0 44 15.667 79.5 47 106.5s73 40.5 125 40.5s93.667 -13.5 125 -40.5s47 -62.5 47 -106.5c0 -43.333 -15.833 -78.666 -47.5 -105.999s-73.167 -41 -124.5 -41zM464 0.000976562h-289v1443h252l664 -899h18v899h289v-1443h-250l-666 903h-18v-903z" />
    <glyph glyph-name="u01CC" unicode="&#x1cc;" horiz-adv-x="1872" 
d="M1724 1103v-1137c0 -112.667 -33 -197.834 -99 -255.501s-163 -86.5 -291 -86.5c-36 0 -62 1.33301 -78 4v223c4 -0.666992 16.333 -1 37 -1c50.667 0 86.667 9.66699 108 29s32 51 32 95v1129h291zM1579 1257c-52 0 -93.667 13.667 -125 41s-47 62.666 -47 105.999
c0 44 15.667 79.5 47 106.5s73 40.5 125 40.5s93.667 -13.5 125 -40.5s47 -62.5 47 -106.5c0 -43.333 -15.833 -78.666 -47.5 -105.999s-73.167 -41 -124.5 -41zM146 0.000976562v1103h282v-177h18c26 63.333 66.833 112.666 122.5 147.999s123.5 53 203.5 53
c122 0 215.333 -35.833 280 -107.5s97 -173.834 97 -306.501v-713h-291v644c0 154.667 -67.667 232 -203 232c-67.333 0 -120.5 -21.833 -159.5 -65.5s-58.5 -101.834 -58.5 -174.501v-636h-291z" />
    <glyph glyph-name="Acaron" unicode="&#x1cd;" horiz-adv-x="1500" 
d="M1102 0l-109 344h-507l-111 -344h-303l501 1443h355l501 -1443h-327zM732 1143l-181 -566h378l-179 566h-18zM877 1590h-254l-281 318h253l145 -173h20l145 173h253z" />
    <glyph glyph-name="acaron" unicode="&#x1ce;" horiz-adv-x="1208" 
d="M544 202c67.333 0 123.667 19.001 169 57.001s68 85 68 141v81l-223 -14c-124 -8.66699 -186 -53 -186 -133c0 -40.667 15.833 -72.834 47.5 -96.501s73.167 -35.5 124.5 -35.5zM448.001 -16.999c-106.667 0 -193.499 30.333 -260.499 91s-100.5 141 -100.5 241
c0 99.333 36.833 177.5 110.5 234.5s179.167 89.5 316.5 97.5l267 16v90c0 46 -16 81.5 -48 106.5s-78 37.5 -138 37.5c-108 0 -174.333 -34 -199 -102h-268c9.33301 102 57.5 182.833 144.5 242.5s199.833 89.5 338.5 89.5c145.333 0 257.833 -32.667 337.5 -98
s119.5 -157.333 119.5 -276v-753h-282v144h-18c-28.667 -50.667 -71.334 -90.167 -128.001 -118.5s-120.667 -42.5 -192 -42.5zM756.002 1251h-291l-275 354h263l149 -209h18l148 209h263z" />
    <glyph glyph-name="Icaron" unicode="&#x1cf;" horiz-adv-x="652" 
d="M477 0h-302v1443h302v-1443zM453 1590h-254l-281 318h253l145 -173h20l145 173h253z" />
    <glyph glyph-name="icaron" unicode="&#x1d0;" horiz-adv-x="587" 
d="M439 1251h-291l-275 354h263l149 -209h18l148 209h263zM148 0v1103h291v-1103h-291z" />
    <glyph glyph-name="Ocaron" unicode="&#x1d1;" horiz-adv-x="1610" 
d="M933 1590h-254l-281 318h253l145 -173h20l145 173h253zM806 1480c213.333 0 382.166 -68 506.499 -204s186.5 -320.667 186.5 -554c0 -234 -62.167 -419 -186.5 -555s-293.166 -204 -506.499 -204c-214 0 -383.333 68 -508 204s-187 321 -187 555
c0 233.333 62.667 418 188 554s294.333 204 507 204zM806 1215c-117.333 0 -211 -44.5 -281 -133.5s-105 -208.833 -105 -359.5s34.833 -270.667 104.5 -360s163.5 -134 281.5 -134c117.333 0 210.833 44.667 280.5 134s104.5 209.333 104.5 360s-34.833 270.5 -104.5 359.5
s-163.167 133.5 -280.5 133.5z" />
    <glyph glyph-name="ocaron" unicode="&#x1d2;" horiz-adv-x="1269" 
d="M780 1251h-291l-275 354h263l149 -209h18l148 209h263zM635 214c77.333 0 137.333 29.5 180 88.5s64 142.167 64 249.5c0 106 -21.5 188.667 -64.5 248s-102.833 89 -179.5 89c-77.333 0 -137.333 -29.667 -180 -89s-64 -142 -64 -248
c0 -107.333 21.167 -190.5 63.5 -249.5s102.5 -88.5 180.5 -88.5zM635 -24c-169.333 0 -302.168 51 -398.501 153s-144.5 243 -144.5 423c0 178.667 48.5 319.167 145.5 421.5s229.5 153.5 397.5 153.5s300.5 -51.167 397.5 -153.5s145.5 -242.833 145.5 -421.5
c0 -180 -48.167 -321 -144.5 -423s-229.166 -153 -398.499 -153z" />
    <glyph glyph-name="Ucaron" unicode="&#x1d3;" horiz-adv-x="1565" 
d="M909 1590h-254l-281 318h253l145 -173h20l145 173h253zM480 1443v-914c0 -92 26.5 -164.667 79.5 -218s127.167 -80 222.5 -80c96 0 170.5 26.667 223.5 80s79.5 126 79.5 218v914h302v-945c0 -160.667 -54.833 -290 -164.5 -388s-256.5 -147 -440.5 -147
c-183.333 0 -329.833 49 -439.5 147s-164.5 227.333 -164.5 388v945h302z" />
    <glyph glyph-name="ucaron" unicode="&#x1d4;" horiz-adv-x="1290" 
d="M785 1251h-291l-275 354h263l149 -209h18l148 209h263zM1144 1103v-1103h-282v177h-18c-54.667 -134 -162 -201 -322 -201c-119.333 0 -213.5 36.167 -282.5 108.5s-103.5 172.166 -103.5 299.499v719h291v-644c0 -153.333 67.667 -230 203 -230
c71.333 0 126.333 21 165 63s58 100.333 58 175v636h291z" />
    <glyph glyph-name="Udieresismacron" unicode="&#x1d5;" horiz-adv-x="1565" 
d="M480 1443v-914c0 -92 26.5 -164.667 79.5 -218s127.167 -80 222.5 -80c96 0 170.5 26.667 223.5 80s79.5 126 79.5 218v914h302v-945c0 -160.667 -54.833 -290 -164.5 -388s-256.5 -147 -440.5 -147c-183.333 0 -329.833 49 -439.5 147s-164.5 227.333 -164.5 388v945
h302zM409 1996v168h746v-168h-746zM548 1579c-44.667 0 -81.5 14.167 -110.5 42.5s-43.5 64.166 -43.5 107.499s14.5 79.166 43.5 107.499s65.833 42.5 110.5 42.5c44 0 80.5 -14.167 109.5 -42.5s43.5 -64.166 43.5 -107.499s-14.5 -79.166 -43.5 -107.499
s-65.5 -42.5 -109.5 -42.5zM1016 1579c-44 0 -80.5 14.167 -109.5 42.5s-43.5 64.166 -43.5 107.499s14.5 79.166 43.5 107.499s65.5 42.5 109.5 42.5c44.667 0 81.5 -14.167 110.5 -42.5s43.5 -64.166 43.5 -107.499s-14.5 -79.166 -43.5 -107.499
s-65.833 -42.5 -110.5 -42.5z" />
    <glyph glyph-name="udieresismacron" unicode="&#x1d6;" horiz-adv-x="1290" 
d="M1144 1103v-1103h-282v177h-18c-54.667 -134 -162 -201 -322 -201c-119.333 0 -213.5 36.167 -282.5 108.5s-103.5 172.166 -103.5 299.499v719h291v-644c0 -153.333 67.667 -230 203 -230c71.333 0 126.333 21 165 63s58 100.333 58 175v636h291zM419 1251
c-42.667 0 -77.834 14 -105.501 42s-41.5 62.333 -41.5 103c0 41.333 13.833 75.833 41.5 103.5s62.834 41.5 105.501 41.5c42 0 76.667 -13.833 104 -41.5s41 -62.167 41 -103.5c0 -40.667 -13.667 -75 -41 -103s-62 -42 -104 -42zM861 1251c-42 0 -76.667 14 -104 42
s-41 62.333 -41 103c0 41.333 13.667 75.833 41 103.5s62 41.5 104 41.5c42.667 0 77.834 -13.833 105.501 -41.5s41.5 -62.167 41.5 -103.5c0 -40.667 -13.833 -75 -41.5 -103s-62.834 -42 -105.501 -42zM1008 1678h-735v180h735v-180z" />
    <glyph glyph-name="Udieresisacute" unicode="&#x1d7;" horiz-adv-x="1565" 
d="M662 1937l166 242h292l-218 -242h-240zM548 1579c-44.667 0 -81.667 14.333 -111 43s-44 65 -44 109s14.5 80.167 43.5 108.5s66.167 42.5 111.5 42.5s82.5 -14.167 111.5 -42.5s43.5 -64.5 43.5 -108.5s-14.667 -80.333 -44 -109s-66.333 -43 -111 -43zM1016 1579
c-44.667 0 -81.667 14.333 -111 43s-44 65 -44 109s14.667 80.167 44 108.5s66.333 42.5 111 42.5c45.333 0 82.666 -14.167 111.999 -42.5s44 -64.5 44 -108.5s-14.667 -80.333 -44 -109s-66.666 -43 -111.999 -43zM480 1443v-914c0 -92 26.5 -164.667 79.5 -218
s127.167 -80 222.5 -80c96 0 170.5 26.667 223.5 80s79.5 126 79.5 218v914h302v-945c0 -160.667 -54.833 -290 -164.5 -388s-256.5 -147 -440.5 -147c-183.333 0 -329.833 49 -439.5 147s-164.5 227.333 -164.5 388v945h302z" />
    <glyph glyph-name="udieresisacute" unicode="&#x1d8;" horiz-adv-x="1290" 
d="M512 1640l207 319h281l-247 -319h-241zM406 1258c-44.667 0 -81.667 14.333 -111 43s-44 65 -44 109s14.5 80.167 43.5 108.5s66.167 42.5 111.5 42.5s82.5 -14.167 111.5 -42.5s43.5 -64.5 43.5 -108.5s-14.667 -80.333 -44 -109s-66.333 -43 -111 -43zM874 1258
c-44.667 0 -81.667 14.333 -111 43s-44 65 -44 109s14.667 80.167 44 108.5s66.333 42.5 111 42.5c45.333 0 82.666 -14.167 111.999 -42.5s44 -64.5 44 -108.5s-14.667 -80.333 -44 -109s-66.666 -43 -111.999 -43zM1144 1103v-1103h-282v177h-18
c-54.667 -134 -162 -201 -322 -201c-119.333 0 -213.5 36.167 -282.5 108.5s-103.5 172.166 -103.5 299.499v719h291v-644c0 -153.333 67.667 -230 203 -230c71.333 0 126.333 21 165 63s58 100.333 58 175v636h291z" />
    <glyph glyph-name="Udieresiscaron" unicode="&#x1d9;" horiz-adv-x="1565" 
d="M548 1564c-44 0 -80.333 13.667 -109 41s-43 62 -43 104c0 41.333 14.333 75.666 43 102.999s65 41 109 41s80.167 -13.667 108.5 -41s42.5 -61.666 42.5 -102.999c0 -42 -14.167 -76.667 -42.5 -104s-64.5 -41 -108.5 -41zM1016 1564c-44 0 -80.167 13.667 -108.5 41
s-42.5 62 -42.5 104c0 41.333 14.167 75.666 42.5 102.999s64.5 41 108.5 41s80.333 -13.667 109 -41s43 -61.666 43 -102.999c0 -42 -14.333 -76.667 -43 -104s-65 -41 -109 -41zM917 1910h-270l-278 300h263l140 -166h20l140 166h263zM480 1443v-914
c0 -92 26.5 -164.667 79.5 -218s127.167 -80 222.5 -80c96 0 170.5 26.667 223.5 80s79.5 126 79.5 218v914h302v-945c0 -160.667 -54.833 -290 -164.5 -388s-256.5 -147 -440.5 -147c-183.333 0 -329.833 49 -439.5 147s-164.5 227.333 -164.5 388v945h302z" />
    <glyph glyph-name="udieresiscaron" unicode="&#x1da;" horiz-adv-x="1290" 
d="M419 1251c-42.667 0 -77.834 14 -105.501 42s-41.5 62.333 -41.5 103c0 41.333 13.833 75.833 41.5 103.5s62.834 41.5 105.501 41.5c42 0 76.667 -13.833 104 -41.5s41 -62.167 41 -103.5c0 -40.667 -13.667 -75 -41 -103s-62 -42 -104 -42zM861 1251
c-42 0 -76.667 14 -104 42s-41 62.333 -41 103c0 41.333 13.667 75.833 41 103.5s62 41.5 104 41.5c42.667 0 77.834 -13.833 105.501 -41.5s41.5 -62.167 41.5 -103.5c0 -40.667 -13.833 -75 -41.5 -103s-62.834 -42 -105.501 -42zM777 1622h-274l-272 347h252l148 -208h18
l148 208h252zM1144 1103v-1103h-282v177h-18c-54.667 -134 -162 -201 -322 -201c-119.333 0 -213.5 36.167 -282.5 108.5s-103.5 172.166 -103.5 299.499v719h291v-644c0 -153.333 67.667 -230 203 -230c71.333 0 126.333 21 165 63s58 100.333 58 175v636h291z" />
    <glyph glyph-name="Udieresisgrave" unicode="&#x1db;" horiz-adv-x="1565" 
d="M911 1937h-240l-218 242h292zM548 1579c-44.667 0 -81.667 14.333 -111 43s-44 65 -44 109s14.5 80.167 43.5 108.5s66.167 42.5 111.5 42.5s82.5 -14.167 111.5 -42.5s43.5 -64.5 43.5 -108.5s-14.667 -80.333 -44 -109s-66.333 -43 -111 -43zM1016 1579
c-44.667 0 -81.667 14.333 -111 43s-44 65 -44 109s14.667 80.167 44 108.5s66.333 42.5 111 42.5c45.333 0 82.666 -14.167 111.999 -42.5s44 -64.5 44 -108.5s-14.667 -80.333 -44 -109s-66.666 -43 -111.999 -43zM480 1443v-914c0 -92 26.5 -164.667 79.5 -218
s127.167 -80 222.5 -80c96 0 170.5 26.667 223.5 80s79.5 126 79.5 218v914h302v-945c0 -160.667 -54.833 -290 -164.5 -388s-256.5 -147 -440.5 -147c-183.333 0 -329.833 49 -439.5 147s-164.5 227.333 -164.5 388v945h302z" />
    <glyph glyph-name="udieresisgrave" unicode="&#x1dc;" horiz-adv-x="1290" 
d="M768 1640h-241l-247 319h281zM406 1258c-44.667 0 -81.667 14.333 -111 43s-44 65 -44 109s14.5 80.167 43.5 108.5s66.167 42.5 111.5 42.5s82.5 -14.167 111.5 -42.5s43.5 -64.5 43.5 -108.5s-14.667 -80.333 -44 -109s-66.333 -43 -111 -43zM874 1258
c-44.667 0 -81.667 14.333 -111 43s-44 65 -44 109s14.667 80.167 44 108.5s66.333 42.5 111 42.5c45.333 0 82.666 -14.167 111.999 -42.5s44 -64.5 44 -108.5s-14.667 -80.333 -44 -109s-66.666 -43 -111.999 -43zM1144 1103v-1103h-282v177h-18
c-54.667 -134 -162 -201 -322 -201c-119.333 0 -213.5 36.167 -282.5 108.5s-103.5 172.166 -103.5 299.499v719h291v-644c0 -153.333 67.667 -230 203 -230c71.333 0 126.333 21 165 63s58 100.333 58 175v636h291z" />
    <glyph glyph-name="Adieresismacron" unicode="&#x1de;" horiz-adv-x="1500" 
d="M1102 0l-109 344h-507l-111 -344h-303l501 1443h355l501 -1443h-327zM732 1143l-181 -566h378l-179 566h-18zM377 1996v168h746v-168h-746zM516 1579c-44.667 0 -81.5 14.167 -110.5 42.5s-43.5 64.166 -43.5 107.499s14.5 79.166 43.5 107.499s65.833 42.5 110.5 42.5
c44 0 80.5 -14.167 109.5 -42.5s43.5 -64.166 43.5 -107.499s-14.5 -79.166 -43.5 -107.499s-65.5 -42.5 -109.5 -42.5zM984 1579c-44 0 -80.5 14.167 -109.5 42.5s-43.5 64.166 -43.5 107.499s14.5 79.166 43.5 107.499s65.5 42.5 109.5 42.5
c44.667 0 81.5 -14.167 110.5 -42.5s43.5 -64.166 43.5 -107.499s-14.5 -79.166 -43.5 -107.499s-65.833 -42.5 -110.5 -42.5z" />
    <glyph glyph-name="adieresismacron" unicode="&#x1df;" horiz-adv-x="1208" 
d="M544 202c67.333 0 123.667 19.001 169 57.001s68 85 68 141v81l-223 -14c-124 -8.66699 -186 -53 -186 -133c0 -40.667 15.833 -72.834 47.5 -96.501s73.167 -35.5 124.5 -35.5zM448.001 -16.999c-106.667 0 -193.499 30.333 -260.499 91s-100.5 141 -100.5 241
c0 99.333 36.833 177.5 110.5 234.5s179.167 89.5 316.5 97.5l267 16v90c0 46 -16 81.5 -48 106.5s-78 37.5 -138 37.5c-108 0 -174.333 -34 -199 -102h-268c9.33301 102 57.5 182.833 144.5 242.5s199.833 89.5 338.5 89.5c145.333 0 257.833 -32.667 337.5 -98
s119.5 -157.333 119.5 -276v-753h-282v144h-18c-28.667 -50.667 -71.334 -90.167 -128.001 -118.5s-120.667 -42.5 -192 -42.5zM390.002 1251c-42.667 0 -77.834 14 -105.501 42s-41.5 62.333 -41.5 103c0 41.333 13.833 75.833 41.5 103.5s62.834 41.5 105.501 41.5
c42 0 76.667 -13.833 104 -41.5s41 -62.167 41 -103.5c0 -40.667 -13.667 -75 -41 -103s-62 -42 -104 -42zM832.002 1251c-42 0 -76.667 14 -104 42s-41 62.333 -41 103c0 41.333 13.667 75.833 41 103.5s62 41.5 104 41.5c42.667 0 77.834 -13.833 105.501 -41.5
s41.5 -62.167 41.5 -103.5c0 -40.667 -13.833 -75 -41.5 -103s-62.834 -42 -105.501 -42zM979.002 1678h-735v180h735v-180z" />
    <glyph glyph-name="Adotmacron" unicode="&#x1e0;" horiz-adv-x="1500" 
d="M1102 0l-109 344h-507l-111 -344h-303l501 1443h355l501 -1443h-327zM732 1143l-181 -566h378l-179 566h-18zM750 1575c-45.333 0 -82.666 14.167 -111.999 42.5s-44 64.166 -44 107.499c0 42.667 14.667 78 44 106s66.666 42 111.999 42s82.666 -14 111.999 -42
s44 -63.333 44 -106c0 -43.333 -14.667 -79.166 -44 -107.499s-66.666 -42.5 -111.999 -42.5zM1123 1996h-746v168h746v-168z" />
    <glyph glyph-name="adotmacron" unicode="&#x1e1;" horiz-adv-x="1208" 
d="M544 202c67.333 0 123.667 19.001 169 57.001s68 85 68 141v81l-223 -14c-124 -8.66699 -186 -53 -186 -133c0 -40.667 15.833 -72.834 47.5 -96.501s73.167 -35.5 124.5 -35.5zM448.001 -16.999c-106.667 0 -193.499 30.333 -260.499 91s-100.5 141 -100.5 241
c0 99.333 36.833 177.5 110.5 234.5s179.167 89.5 316.5 97.5l267 16v90c0 46 -16 81.5 -48 106.5s-78 37.5 -138 37.5c-108 0 -174.333 -34 -199 -102h-268c9.33301 102 57.5 182.833 144.5 242.5s199.833 89.5 338.5 89.5c145.333 0 257.833 -32.667 337.5 -98
s119.5 -157.333 119.5 -276v-753h-282v144h-18c-28.667 -50.667 -71.334 -90.167 -128.001 -118.5s-120.667 -42.5 -192 -42.5zM611.002 1251c-44 0 -80.167 14.167 -108.5 42.5s-42.5 63.833 -42.5 106.5c0 43.333 14.167 79.333 42.5 108s64.5 43 108.5 43
s80.167 -14.333 108.5 -43s42.5 -64.667 42.5 -108c0 -42.667 -14.167 -78.167 -42.5 -106.5s-64.5 -42.5 -108.5 -42.5zM979.002 1678h-735v180h735v-180z" />
    <glyph glyph-name="AEmacron" unicode="&#x1e2;" horiz-adv-x="2059" 
d="M990 1202h-129l-249 -604h378v604zM990 0v364h-465l-154 -364h-299l595 1443h1250v-258h-651v-341h614v-239h-614v-347h651v-258h-927zM1896 1632h-746v181h746v-181z" />
    <glyph glyph-name="aemacron" unicode="&#x1e3;" horiz-adv-x="1902" 
d="M1315 -24c-86.667 0 -165.002 17.832 -235.002 53.499s-122 83.834 -156 144.501h-18c-42.667 -62 -99.167 -110.5 -169.5 -145.5s-149.5 -52.5 -237.5 -52.5c-124.667 0 -224.5 31.333 -299.5 94s-112.5 144.334 -112.5 245.001c0 99.333 36.833 177.5 110.5 234.5
s179.167 89.5 316.5 97.5l267 16v73c0 53.333 -16.5 93.5 -49.5 120.5s-78.5 40.5 -136.5 40.5c-108 0 -174.333 -34 -199 -102h-268c8.66699 97.333 55 177 139 239s188.333 93 313 93c167.333 0 286.333 -52.667 357 -158h18c38.667 48 89.167 86.333 151.5 115
s130.5 43 204.5 43c152 0 272 -49.333 360 -148s132 -232.334 132 -401.001v-94h-747v-26c2.66699 -78 27.334 -140.5 74.001 -187.5s107.334 -70.5 182.001 -70.5c103.333 0 174 38 212 114h269c-22 -104 -75.667 -186.333 -161 -247s-191 -91 -317 -91zM1293 903.999
c-68 0 -123.499 -21.5 -166.499 -64.5s-66.5 -99.833 -70.5 -170.5h462c-2.66699 70 -24.834 126.667 -66.501 170s-94.5 65 -158.5 65zM548.999 198.999c68.667 0 124.501 19.332 167.501 57.999s64.5 85.334 64.5 140.001v84l-223 -14
c-124 -8.66699 -186 -53.667 -186 -135c0 -41.333 16.167 -73.833 48.5 -97.5s75.166 -35.5 128.499 -35.5zM1351 1316h-735v180h735v-180z" />
    <glyph glyph-name="Gcaron" unicode="&#x1e6;" horiz-adv-x="1557" 
d="M923 1591h-254l-281 318h253l145 -173h20l145 173h253zM1443 589c0 -192.667 -57.333 -345.165 -172 -457.498s-270.667 -168.5 -468 -168.5c-214.667 0 -383.667 67.667 -507 203s-185 321 -185 557c0 232.667 61.667 417 185 553s290 204 500 204
c170.667 0 313.667 -45.333 429 -136s183.666 -211 204.999 -361h-300c-22.667 73.333 -63 130.166 -121 170.499s-129 60.5 -213 60.5c-116.667 0 -208.5 -43.5 -275.5 -130.5s-100.5 -206.167 -100.5 -357.5c0 -154 34.833 -275.333 104.5 -364s164.167 -133 283.5 -133
c98.667 0 179.334 26.667 242.001 80s95.667 123.666 99 210.999l1 26h-313v227h606v-184z" />
    <glyph glyph-name="gcaron" unicode="&#x1e7;" horiz-adv-x="1322" 
d="M789 1251h-291l-275 354h263l149 -209h18l148 209h263zM888 561c0 97.333 -22.501 174.333 -67.501 231s-106.5 85 -184.5 85s-138.833 -28.167 -182.5 -84.5s-65.5 -133.166 -65.5 -230.499c0 -98 21.667 -175.167 65 -231.5s104.333 -84.5 183 -84.5
s140.334 28.167 185.001 84.5s67 133.166 67 230.499zM631.999 -418c-145.333 0 -263.499 29.501 -354.499 88.501s-141.167 137.167 -150.5 234.5h288c7.33301 -34 30.666 -61 69.999 -81s90.333 -30 153 -30c78 0 138.667 17.167 182 51.5s65 82.5 65 144.5v204h-18
c-62.667 -118.667 -173.334 -178 -332.001 -178c-137.333 0 -246 49.167 -326 147.5s-120 230.833 -120 397.5c0 171.333 40.5 307.5 121.5 408.5s191.167 151.5 330.5 151.5c74.667 0 141.834 -17.333 201.501 -52s104.167 -82.334 133.5 -143.001h18v177h282v-1099
c0 -129.333 -49 -232 -147 -308s-230.333 -114 -397 -114z" />
    <glyph glyph-name="Kcaron" unicode="&#x1e8;" horiz-adv-x="1453" 
d="M477 0h-302v1443h302v-643h18l533 643h336l-526 -633l563 -810h-362l-419 604l-143 -169v-435zM829 1590h-254l-281 318h253l145 -173h20l145 173h253z" />
    <glyph glyph-name="kcaron" unicode="&#x1e9;" horiz-adv-x="1232" 
d="M465 672l369 431h331l-420 -473l449 -630h-345l-322 448l-80 -82v-366h-291v1524h291v-852h18zM429 1671h-254l-281 318h253l145 -173h20l145 173h253z" />
    <glyph glyph-name="Oogonek" unicode="&#x1ea;" horiz-adv-x="1610" 
d="M1063 -466c-80.667 0 -146.499 20.333 -197.499 61s-76.5 93 -76.5 157c0 43.333 12.167 84 36.5 122s55.833 68.333 94.5 91v18c-22 -13.333 -60 -20 -114 -20c-214 0 -383.333 68 -508 204s-187 321 -187 555c0 232.667 62.5 417.167 187.5 553.5
s294.167 204.5 507.5 204.5s382.166 -68 506.499 -204s186.5 -320.667 186.5 -554c0 -148 -27.5 -278.5 -82.5 -391.5s-140.833 -214.5 -257.5 -304.5c-96.667 -74 -145 -144.333 -145 -211c0 -30 10.333 -54.333 31 -73s49.667 -28 87 -28c33.333 0 56.333 2.66699 69 8
v-167c-38 -14 -84 -21 -138 -21zM806.001 1215c-117.333 0 -211 -44.667 -281 -134s-105 -209 -105 -359c0 -151.333 34.833 -271.5 104.5 -360.5s163.5 -133.5 281.5 -133.5c117.333 0 210.833 44.667 280.5 134s104.5 209.333 104.5 360c0 150 -34.833 269.667 -104.5 359
s-163.167 134 -280.5 134z" />
    <glyph glyph-name="oogonek" unicode="&#x1eb;" horiz-adv-x="1269" 
d="M635 214c77.333 0 137.333 29.5 180 88.5s64 142.167 64 249.5c0 106 -21.5 188.667 -64.5 248s-102.833 89 -179.5 89s-136.5 -29.667 -179.5 -89s-64.5 -142 -64.5 -248c0 -107.333 21.333 -190.5 64 -249.5s102.667 -88.5 180 -88.5zM570 -242
c0 41.333 11.832 80.499 35.499 117.499s55.5 67.167 95.5 90.5v18c-14.667 -5.33301 -36.667 -8 -66 -8c-170 0 -303 51 -399 153s-144 243 -144 423c0 178 48.5 318.333 145.5 421s229.5 154 397.5 154c168.667 0 301.334 -51.167 398.001 -153.5s145 -242.833 145 -421.5
c0 -105.333 -20.5 -202.666 -61.5 -291.999s-101.167 -167 -180.5 -233c-94 -79.333 -141 -150 -141 -212c0 -32 10.667 -56.833 32 -74.5s50 -26.5 86 -26.5c32.667 0 55.667 2.66699 69 8v-167c-36 -14 -82 -21 -138 -21c-81.333 0 -147.333 21 -198 63
s-76 95.667 -76 161z" />
    <glyph glyph-name="Oogonekmacron" unicode="&#x1ec;" horiz-adv-x="1610" 
d="M1063 -466c-80.667 0 -146.499 20.333 -197.499 61s-76.5 93 -76.5 157c0 43.333 12.167 84 36.5 122s55.833 68.333 94.5 91v18c-22 -13.333 -60 -20 -114 -20c-214 0 -383.333 68 -508 204s-187 321 -187 555c0 232.667 62.5 417.167 187.5 553.5
s294.167 204.5 507.5 204.5s382.166 -68 506.499 -204s186.5 -320.667 186.5 -554c0 -148 -27.5 -278.5 -82.5 -391.5s-140.833 -214.5 -257.5 -304.5c-96.667 -74 -145 -144.333 -145 -211c0 -30 10.333 -54.333 31 -73s49.667 -28 87 -28c33.333 0 56.333 2.66699 69 8
v-167c-38 -14 -84 -21 -138 -21zM806.001 1215c-117.333 0 -211 -44.667 -281 -134s-105 -209 -105 -359c0 -151.333 34.833 -271.5 104.5 -360.5s163.5 -133.5 281.5 -133.5c117.333 0 210.833 44.667 280.5 134s104.5 209.333 104.5 360c0 150 -34.833 269.667 -104.5 359
s-163.167 134 -280.5 134zM1179 1632h-746v181h746v-181z" />
    <glyph glyph-name="oogonekmacron" unicode="&#x1ed;" horiz-adv-x="1269" 
d="M635 214c77.333 0 137.333 29.5 180 88.5s64 142.167 64 249.5c0 106 -21.5 188.667 -64.5 248s-102.833 89 -179.5 89s-136.5 -29.667 -179.5 -89s-64.5 -142 -64.5 -248c0 -107.333 21.333 -190.5 64 -249.5s102.667 -88.5 180 -88.5zM570 -242
c0 41.333 11.832 80.499 35.499 117.499s55.5 67.167 95.5 90.5v18c-14.667 -5.33301 -36.667 -8 -66 -8c-170 0 -303 51 -399 153s-144 243 -144 423c0 178 48.5 318.333 145.5 421s229.5 154 397.5 154c168.667 0 301.334 -51.167 398.001 -153.5s145 -242.833 145 -421.5
c0 -105.333 -20.5 -202.666 -61.5 -291.999s-101.167 -167 -180.5 -233c-94 -79.333 -141 -150 -141 -212c0 -32 10.667 -56.833 32 -74.5s50 -26.5 86 -26.5c32.667 0 55.667 2.66699 69 8v-167c-36 -14 -82 -21 -138 -21c-81.333 0 -147.333 21 -198 63
s-76 95.667 -76 161zM1003 1316h-735v180h735v-180z" />
    <glyph glyph-name="u01F1" unicode="&#x1f1;" horiz-adv-x="2924" 
d="M1675 0v204l726 963v18h-709v258h1077v-203l-724 -964v-18h744v-258h-1114zM175 1444h568c214.667 0 381.167 -62.167 499.5 -186.5s177.5 -299.5 177.5 -525.5c0 -234 -58.833 -414.5 -176.5 -541.5s-284.5 -190.5 -500.5 -190.5h-568v1444zM477 1186
l-0.000976562 -927.999h218c134 0 237 40.167 309 120.5s108 196.5 108 348.5c0 145.333 -36.667 258.166 -110 338.499s-175.666 120.5 -306.999 120.5h-218z" />
    <glyph glyph-name="u01F2" unicode="&#x1f2;" horiz-adv-x="2700" 
d="M1661 0v172l558 681v18h-550v232h898v-192l-526 -661v-18h539v-232h-919zM175 1444h568c214.667 0 381.167 -62.167 499.5 -186.5s177.5 -299.5 177.5 -525.5c0 -234 -58.833 -414.5 -176.5 -541.5s-284.5 -190.5 -500.5 -190.5h-568v1444zM477 1186
l-0.000976562 -927.999h218c134 0 237 40.167 309 120.5s108 196.5 108 348.5c0 145.333 -36.667 258.166 -110 338.499s-175.666 120.5 -306.999 120.5h-218z" />
    <glyph glyph-name="u01F3" unicode="&#x1f3;" horiz-adv-x="2503" 
d="M1464 0v172l558 681v18h-550v232h898v-192l-526 -661v-18h539v-232h-919zM541 -17c-138.667 0 -248.168 51 -328.501 153s-120.5 241 -120.5 417c0 175.333 40.167 313.833 120.5 415.5s189.833 152.5 328.5 152.5c74.667 0 141 -17.167 199 -51.5
s101.333 -81.833 130 -142.5h17v597h291v-1524h-282v173h-18c-29.333 -59.333 -73.666 -105.833 -132.999 -139.5s-127.333 -50.5 -204 -50.5zM639.999 877c-77.333 0 -138.167 -28.833 -182.5 -86.5s-66.5 -137.167 -66.5 -238.5c0 -102 22 -181.833 66 -239.5
s105 -86.5 183 -86.5s139.167 28.833 183.5 86.5s66.5 137.167 66.5 238.5c0 100.667 -22.333 180.167 -67 238.5s-105.667 87.5 -183 87.5z" />
    <glyph glyph-name="Gacute" unicode="&#x1f4;" horiz-adv-x="1557" 
d="M655 1591l277 318h315l-314 -318h-278zM1443 589c0 -192.667 -57.333 -345.165 -172 -457.498s-270.667 -168.5 -468 -168.5c-214.667 0 -383.667 67.667 -507 203s-185 321 -185 557c0 232.667 61.667 417 185 553s290 204 500 204c170.667 0 313.667 -45.333 429 -136
s183.666 -211 204.999 -361h-300c-22.667 73.333 -63 130.166 -121 170.499s-129 60.5 -213 60.5c-116.667 0 -208.5 -43.5 -275.5 -130.5s-100.5 -206.167 -100.5 -357.5c0 -154 34.833 -275.333 104.5 -364s164.167 -133 283.5 -133c98.667 0 179.334 26.667 242.001 80
s95.667 123.666 99 210.999l1 26h-313v227h606v-184z" />
    <glyph glyph-name="gacute" unicode="&#x1f5;" horiz-adv-x="1322" 
d="M489 1281l247 353h309l-287 -353h-269zM888 561c0 97.333 -22.501 174.333 -67.501 231s-106.5 85 -184.5 85s-138.833 -28.167 -182.5 -84.5s-65.5 -133.166 -65.5 -230.499c0 -98 21.667 -175.167 65 -231.5s104.333 -84.5 183 -84.5s140.334 28.167 185.001 84.5
s67 133.166 67 230.499zM631.999 -418c-145.333 0 -263.499 29.501 -354.499 88.501s-141.167 137.167 -150.5 234.5h288c7.33301 -34 30.666 -61 69.999 -81s90.333 -30 153 -30c78 0 138.667 17.167 182 51.5s65 82.5 65 144.5v204h-18
c-62.667 -118.667 -173.334 -178 -332.001 -178c-137.333 0 -246 49.167 -326 147.5s-120 230.833 -120 397.5c0 171.333 40.5 307.5 121.5 408.5s191.167 151.5 330.5 151.5c74.667 0 141.834 -17.333 201.501 -52s104.167 -82.334 133.5 -143.001h18v177h282v-1099
c0 -129.333 -49 -232 -147 -308s-230.333 -114 -397 -114z" />
    <glyph glyph-name="Ngrave" unicode="&#x1f8;" horiz-adv-x="1573" 
d="M657 1908l276 -318h-277l-314 318h315zM464 0h-289v1443h252l664 -899h18v899h289v-1443h-250l-666 903h-18v-903z" />
    <glyph glyph-name="ngrave" unicode="&#x1f9;" horiz-adv-x="1285" 
d="M814 1281h-269l-287 353h309zM146 0v1103h282v-177h18c26 63.333 66.833 112.666 122.5 147.999s123.5 53 203.5 53c122 0 215.333 -35.833 280 -107.5s97 -173.834 97 -306.501v-713h-291v644c0 154.667 -67.667 232 -203 232c-67.333 0 -120.5 -21.833 -159.5 -65.5
s-58.5 -101.834 -58.5 -174.501v-636h-291z" />
    <glyph glyph-name="Aringacute" unicode="&#x1fa;" horiz-adv-x="1500" 
d="M1102 0l-109 344h-507l-111 -344h-303l501 1443h355l501 -1443h-327zM732 1143l-181 -566h378l-179 566h-18zM700 1779c-10.667 -12.667 -14.667 -27.3369 -12 -44.0039s11.334 -30.334 26.001 -41.001c14 -11.333 29.167 -16.166 45.5 -14.499
s29.833 8.83398 40.5 21.501s14.667 27.334 12 44.001s-11.334 30.334 -26.001 41.001c-14 11.333 -29.333 16.333 -46 15s-30 -8.66602 -40 -21.999zM751 1531c-62 0 -113.667 20 -155 60s-62 90.333 -62 151c0 60 20.667 109.667 62 149s93 59 155 59
c61.333 0 112.5 -19.667 153.5 -59s61.5 -89 61.5 -149c0 -60.667 -20.5 -111 -61.5 -151s-92.167 -60 -153.5 -60zM741 2214h264l-135 -191h-237z" />
    <glyph glyph-name="aringacute" unicode="&#x1fb;" horiz-adv-x="1208" 
d="M544 202c67.333 0 123.667 19.001 169 57.001s68 85 68 141v81l-223 -14c-124 -8.66699 -186 -53 -186 -133c0 -40.667 15.833 -72.834 47.5 -96.501s73.167 -35.5 124.5 -35.5zM448.001 -16.999c-106.667 0 -193.499 30.333 -260.499 91s-100.5 141 -100.5 241
c0 99.333 36.833 177.5 110.5 234.5s179.167 89.5 316.5 97.5l267 16v90c0 46 -16 81.5 -48 106.5s-78 37.5 -138 37.5c-108 0 -174.333 -34 -199 -102h-268c9.33301 102 57.5 182.833 144.5 242.5s199.833 89.5 338.5 89.5c145.333 0 257.833 -32.667 337.5 -98
s119.5 -157.333 119.5 -276v-753h-282v144h-18c-28.667 -50.667 -71.334 -90.167 -128.001 -118.5s-120.667 -42.5 -192 -42.5zM611.002 1215c-64.667 0 -118.667 21.333 -162 64s-65 95.667 -65 159s21.667 116.166 65 158.499s97.333 63.5 162 63.5
s118.667 -21.167 162 -63.5s65 -95.166 65 -158.499s-21.667 -116.333 -65 -159s-97.333 -64 -162 -64zM519.002 1437c0 -26 8.83301 -47.667 26.5 -65s39.5 -26 65.5 -26s47.833 8.66699 65.5 26s26.5 39 26.5 65s-8.83301 47.667 -26.5 65s-39.5 26 -65.5 26
s-47.833 -8.66699 -65.5 -26s-26.5 -39 -26.5 -65zM505.002 1739l160 236h251l-198 -236h-213z" />
    <glyph glyph-name="AEacute" unicode="&#x1fc;" horiz-adv-x="2059" 
d="M1382 1590l277 318h315l-314 -318h-278zM990 1202h-129l-249 -604h378v604zM990 0v364h-465l-154 -364h-299l595 1443h1250v-258h-651v-341h614v-239h-614v-347h651v-258h-927z" />
    <glyph glyph-name="aeacute" unicode="&#x1fd;" horiz-adv-x="1902" 
d="M828 1281l247 353h309l-287 -353h-269zM1315 -24c-86.667 0 -165.002 17.832 -235.002 53.499s-122 83.834 -156 144.501h-18c-42.667 -62 -99.167 -110.5 -169.5 -145.5s-149.5 -52.5 -237.5 -52.5c-124.667 0 -224.5 31.333 -299.5 94s-112.5 144.334 -112.5 245.001
c0 99.333 36.833 177.5 110.5 234.5s179.167 89.5 316.5 97.5l267 16v73c0 53.333 -16.5 93.5 -49.5 120.5s-78.5 40.5 -136.5 40.5c-108 0 -174.333 -34 -199 -102h-268c8.66699 97.333 55 177 139 239s188.333 93 313 93c167.333 0 286.333 -52.667 357 -158h18
c38.667 48 89.167 86.333 151.5 115s130.5 43 204.5 43c152 0 272 -49.333 360 -148s132 -232.334 132 -401.001v-94h-747v-26c2.66699 -78 27.334 -140.5 74.001 -187.5s107.334 -70.5 182.001 -70.5c103.333 0 174 38 212 114h269c-22 -104 -75.667 -186.333 -161 -247
s-191 -91 -317 -91zM1293 903.999c-68 0 -123.499 -21.5 -166.499 -64.5s-66.5 -99.833 -70.5 -170.5h462c-2.66699 70 -24.834 126.667 -66.501 170s-94.5 65 -158.5 65zM548.999 198.999c68.667 0 124.501 19.332 167.501 57.999s64.5 85.334 64.5 140.001v84l-223 -14
c-124 -8.66699 -186 -53.667 -186 -135c0 -41.333 16.167 -73.833 48.5 -97.5s75.166 -35.5 128.499 -35.5z" />
    <glyph glyph-name="Oslashacute" unicode="&#x1fe;" horiz-adv-x="1592" 
d="M1270 1908l-314 -318h-278l277 318h315zM1097 1067l-510 -768c62 -47.333 135 -71 219 -71c117.333 0 210.833 44.667 280.5 134s104.5 209.333 104.5 360c0 144 -31.333 259 -94 345zM503 392l506.001 763c-58.667 40 -126.334 60 -203.001 60
c-117.333 0 -211 -44.5 -281 -133.5s-105 -208.833 -105 -359.5c0 -134 27.667 -244 83 -330zM1350 1448l-84 -127.002c75.333 -65.333 133 -149 173 -251s60 -218 60 -348c0 -234 -62.167 -419 -186.5 -555s-293.166 -204 -506.499 -204
c-144.667 0 -270.334 32.333 -377.001 97l-85 -128l-102 66l90 135c-71.333 66.667 -126 149.834 -164 249.501s-57 212.834 -57 339.501c0 233.333 62.667 418 188 554s294.333 204 507 204c138 0 258 -29.333 360 -88l76 115z" />
    <glyph glyph-name="oslashacute" unicode="&#x1ff;" horiz-adv-x="1269" 
d="M1024 1634l-287 -353h-269l247 353h309zM841 755l-320 -513.001c32.667 -18.667 70.667 -28 114 -28c77.333 0 137.333 29.5 180 88.5s64 142.167 64 249.5c0 80.667 -12.667 148.334 -38 203.001zM436 332.999l324 520c-35.333 24 -77 36 -125 36
c-77.333 0 -137.333 -29.667 -180 -89s-64 -142 -64 -248c0 -90.667 15 -163.667 45 -219zM1065 1114l-67.001 -107c120 -103.333 180 -255 180 -455c0 -180 -48.167 -321 -144.5 -423s-229.166 -153 -398.499 -153c-92.667 0 -175.667 16 -249 48l-61 -97l-103 63l60 96
c-126.667 102 -190 257.333 -190 466c0 178.667 48.5 319.167 145.5 421.5s229.5 153.5 397.5 153.5c98 0 185.333 -18.333 262 -55l62 100z" />
    <glyph glyph-name="Adblgrave" unicode="&#x200;" horiz-adv-x="1500" 
d="M1102 0l-109 344h-507l-111 -344h-303l501 1443h355l501 -1443h-327zM732 1143l-181 -566h378l-179 566h-18zM661 1590h-244l-278 318h270zM1098 1590h-244l-278 318h271z" />
    <glyph glyph-name="adblgrave" unicode="&#x201;" horiz-adv-x="1208" 
d="M544 202c67.333 0 123.667 19.001 169 57.001s68 85 68 141v81l-223 -14c-124 -8.66699 -186 -53 -186 -133c0 -40.667 15.833 -72.834 47.5 -96.501s73.167 -35.5 124.5 -35.5zM448.001 -16.999c-106.667 0 -193.499 30.333 -260.499 91s-100.5 141 -100.5 241
c0 99.333 36.833 177.5 110.5 234.5s179.167 89.5 316.5 97.5l267 16v90c0 46 -16 81.5 -48 106.5s-78 37.5 -138 37.5c-108 0 -174.333 -34 -199 -102h-268c9.33301 102 57.5 182.833 144.5 242.5s199.833 89.5 338.5 89.5c145.333 0 257.833 -32.667 337.5 -98
s119.5 -157.333 119.5 -276v-753h-282v144h-18c-28.667 -50.667 -71.334 -90.167 -128.001 -118.5s-120.667 -42.5 -192 -42.5zM526.002 1281h-230l-241 353h258zM962.002 1281h-230l-241 353h258z" />
    <glyph glyph-name="Ainvertedbreve" unicode="&#x202;" horiz-adv-x="1500" 
d="M1102 0l-109 344h-507l-111 -344h-303l501 1443h355l501 -1443h-327zM732 1143l-181 -566h378l-179 566h-18zM350 1579c0 100.667 36.165 181.834 108.498 243.501s169.5 92.5 291.5 92.5s219.167 -30.833 291.5 -92.5s108.5 -142.834 108.5 -243.501h-208
c-1.33301 50.667 -19.166 90.834 -53.499 120.501s-80.5 44.5 -138.5 44.5s-104.167 -14.833 -138.5 -44.5s-52.166 -69.834 -53.499 -120.501h-208z" />
    <glyph glyph-name="ainvertedbreve" unicode="&#x203;" horiz-adv-x="1208" 
d="M544 202c67.333 0 123.667 19.001 169 57.001s68 85 68 141v81l-223 -14c-124 -8.66699 -186 -53 -186 -133c0 -40.667 15.833 -72.834 47.5 -96.501s73.167 -35.5 124.5 -35.5zM448.001 -16.999c-106.667 0 -193.499 30.333 -260.499 91s-100.5 141 -100.5 241
c0 99.333 36.833 177.5 110.5 234.5s179.167 89.5 316.5 97.5l267 16v90c0 46 -16 81.5 -48 106.5s-78 37.5 -138 37.5c-108 0 -174.333 -34 -199 -102h-268c9.33301 102 57.5 182.833 144.5 242.5s199.833 89.5 338.5 89.5c145.333 0 257.833 -32.667 337.5 -98
s119.5 -157.333 119.5 -276v-753h-282v144h-18c-28.667 -50.667 -71.334 -90.167 -128.001 -118.5s-120.667 -42.5 -192 -42.5zM211.002 1251c0 104 36.167 188.5 108.5 253.5s169.5 97.5 291.5 97.5s219.167 -32.5 291.5 -97.5s108.5 -149.5 108.5 -253.5h-208
c-1.33301 54 -19 97.167 -53 129.5s-80.333 48.5 -139 48.5s-105 -16.167 -139 -48.5s-51.667 -75.5 -53 -129.5h-208z" />
    <glyph glyph-name="Edblgrave" unicode="&#x204;" horiz-adv-x="1274" 
d="M564 1590h-244l-278 318h270zM1001 1590h-244l-278 318h271zM1131 258v-258h-956v1443h956v-258h-654v-337h617v-239h-617v-351h654z" />
    <glyph glyph-name="edblgrave" unicode="&#x205;" horiz-adv-x="1231" 
d="M623 904c-67.333 0 -122.833 -21.667 -166.5 -65s-68.167 -100.666 -73.5 -171.999h470c-3.33301 73.333 -25.5 131.166 -66.5 173.499s-95.5 63.5 -163.5 63.5zM859 314h271.001c-22 -104.667 -77.833 -187.167 -167.5 -247.5s-201.834 -90.5 -336.501 -90.5
c-168 0 -299 50.167 -393 150.5s-141 240.166 -141 419.499s47.333 321 142 425s224 156 388 156c162.667 0 289.5 -49 380.5 -147s136.5 -234.667 136.5 -410v-89h-757v-15c2 -82 25.5 -146.833 70.5 -194.5s105.5 -71.5 181.5 -71.5c57.333 0 105.333 9.83301 144 29.5
s65.667 47.834 81 84.501zM537.001 1281h-230l-241 353h258zM973.001 1281h-230l-241 353h258z" />
    <glyph glyph-name="Einvertedbreve" unicode="&#x206;" horiz-adv-x="1274" 
d="M1131 258v-258h-956v1443h956v-258h-654v-337h617v-239h-617v-351h654zM253 1579c0 100.667 36.165 181.834 108.498 243.501s169.5 92.5 291.5 92.5s219.167 -30.833 291.5 -92.5s108.5 -142.834 108.5 -243.501h-208c-1.33301 50.667 -19.166 90.834 -53.499 120.501
s-80.5 44.5 -138.5 44.5s-104.167 -14.833 -138.5 -44.5s-52.166 -69.834 -53.499 -120.501h-208z" />
    <glyph glyph-name="einvertedbreve" unicode="&#x207;" horiz-adv-x="1231" 
d="M623 904c-67.333 0 -122.833 -21.667 -166.5 -65s-68.167 -100.666 -73.5 -171.999h470c-3.33301 73.333 -25.5 131.166 -66.5 173.499s-95.5 63.5 -163.5 63.5zM859 314h271.001c-22 -104.667 -77.833 -187.167 -167.5 -247.5s-201.834 -90.5 -336.501 -90.5
c-168 0 -299 50.167 -393 150.5s-141 240.166 -141 419.499s47.333 321 142 425s224 156 388 156c162.667 0 289.5 -49 380.5 -147s136.5 -234.667 136.5 -410v-89h-757v-15c2 -82 25.5 -146.833 70.5 -194.5s105.5 -71.5 181.5 -71.5c57.333 0 105.333 9.83301 144 29.5
s65.667 47.834 81 84.501zM222.001 1251c0 104 36.167 188.5 108.5 253.5s169.5 97.5 291.5 97.5s219.167 -32.5 291.5 -97.5s108.5 -149.5 108.5 -253.5h-208c-1.33301 54 -19 97.167 -53 129.5s-80.333 48.5 -139 48.5s-105 -16.167 -139 -48.5s-51.667 -75.5 -53 -129.5
h-208z" />
    <glyph glyph-name="Idblgrave" unicode="&#x208;" horiz-adv-x="652" 
d="M477 0h-302v1443h302v-1443zM237 1590h-244l-278 318h270zM674 1590h-244l-278 318h271z" />
    <glyph glyph-name="idblgrave" unicode="&#x209;" horiz-adv-x="587" 
d="M148 0v1103h291v-1103h-291zM209 1281h-230l-241 353h258zM645 1281h-230l-241 353h258z" />
    <glyph glyph-name="Iinvertedbreve" unicode="&#x20a;" horiz-adv-x="652" 
d="M477 0h-302v1443h302v-1443zM-74 1579c0 100.667 36.165 181.834 108.498 243.501s169.5 92.5 291.5 92.5s219.167 -30.833 291.5 -92.5s108.5 -142.834 108.5 -243.501h-208c-1.33301 50.667 -19.166 90.834 -53.499 120.501s-80.5 44.5 -138.5 44.5
s-104.167 -14.833 -138.5 -44.5s-52.166 -69.834 -53.499 -120.501h-208z" />
    <glyph glyph-name="iinvertedbreve" unicode="&#x20b;" horiz-adv-x="587" 
d="M148 0v1103h291v-1103h-291zM-106 1251c0 104 36.167 188.5 108.5 253.5s169.5 97.5 291.5 97.5s219.167 -32.5 291.5 -97.5s108.5 -149.5 108.5 -253.5h-208c-1.33301 54 -19 97.167 -53 129.5s-80.333 48.5 -139 48.5s-105 -16.167 -139 -48.5
s-51.667 -75.5 -53 -129.5h-208z" />
    <glyph glyph-name="Odblgrave" unicode="&#x20c;" horiz-adv-x="1610" 
d="M717 1590h-244l-278 318h270zM1154 1590h-244l-278 318h271zM806 1480c213.333 0 382.166 -68 506.499 -204s186.5 -320.667 186.5 -554c0 -234 -62.167 -419 -186.5 -555s-293.166 -204 -506.499 -204c-214 0 -383.333 68 -508 204s-187 321 -187 555
c0 233.333 62.667 418 188 554s294.333 204 507 204zM806 1215c-117.333 0 -211 -44.5 -281 -133.5s-105 -208.833 -105 -359.5s34.833 -270.667 104.5 -360s163.5 -134 281.5 -134c117.333 0 210.833 44.667 280.5 134s104.5 209.333 104.5 360s-34.833 270.5 -104.5 359.5
s-163.167 133.5 -280.5 133.5z" />
    <glyph glyph-name="odblgrave" unicode="&#x20d;" horiz-adv-x="1269" 
d="M635 214c77.333 0 137.333 29.5 180 88.5s64 142.167 64 249.5c0 106 -21.5 188.667 -64.5 248s-102.833 89 -179.5 89c-77.333 0 -137.333 -29.667 -180 -89s-64 -142 -64 -248c0 -107.333 21.167 -190.5 63.5 -249.5s102.5 -88.5 180.5 -88.5zM635 -24
c-169.333 0 -302.168 51 -398.501 153s-144.5 243 -144.5 423c0 178.667 48.5 319.167 145.5 421.5s229.5 153.5 397.5 153.5s300.5 -51.167 397.5 -153.5s145.5 -242.833 145.5 -421.5c0 -180 -48.167 -321 -144.5 -423s-229.166 -153 -398.499 -153zM549.998 1281h-230
l-241 353h258zM985.998 1281h-230l-241 353h258z" />
    <glyph glyph-name="Oinvertedbreve" unicode="&#x20e;" horiz-adv-x="1610" 
d="M406 1579c0 100.667 36.165 181.834 108.498 243.501s169.5 92.5 291.5 92.5s219.167 -30.833 291.5 -92.5s108.5 -142.834 108.5 -243.501h-208c-1.33301 50.667 -19.166 90.834 -53.499 120.501s-80.5 44.5 -138.5 44.5s-104.167 -14.833 -138.5 -44.5
s-52.166 -69.834 -53.499 -120.501h-208zM805.998 1480c213.333 0 382.166 -68 506.499 -204s186.5 -320.667 186.5 -554c0 -234 -62.167 -419 -186.5 -555s-293.166 -204 -506.499 -204c-214 0 -383.333 68 -508 204s-187 321 -187 555c0 233.333 62.667 418 188 554
s294.333 204 507 204zM805.998 1215c-117.333 0 -211 -44.5 -281 -133.5s-105 -208.833 -105 -359.5s34.833 -270.667 104.5 -360s163.5 -134 281.5 -134c117.333 0 210.833 44.667 280.5 134s104.5 209.333 104.5 360s-34.833 270.5 -104.5 359.5
s-163.167 133.5 -280.5 133.5z" />
    <glyph glyph-name="oinvertedbreve" unicode="&#x20f;" horiz-adv-x="1269" 
d="M635 214c77.333 0 137.333 29.5 180 88.5s64 142.167 64 249.5c0 106 -21.5 188.667 -64.5 248s-102.833 89 -179.5 89c-77.333 0 -137.333 -29.667 -180 -89s-64 -142 -64 -248c0 -107.333 21.167 -190.5 63.5 -249.5s102.5 -88.5 180.5 -88.5zM635 -24
c-169.333 0 -302.168 51 -398.501 153s-144.5 243 -144.5 423c0 178.667 48.5 319.167 145.5 421.5s229.5 153.5 397.5 153.5s300.5 -51.167 397.5 -153.5s145.5 -242.833 145.5 -421.5c0 -180 -48.167 -321 -144.5 -423s-229.166 -153 -398.499 -153zM234.998 1251
c0 104 36.167 188.5 108.5 253.5s169.5 97.5 291.5 97.5s219.167 -32.5 291.5 -97.5s108.5 -149.5 108.5 -253.5h-208c-1.33301 54 -19 97.167 -53 129.5s-80.333 48.5 -139 48.5s-105 -16.167 -139 -48.5s-51.667 -75.5 -53 -129.5h-208z" />
    <glyph glyph-name="Rdblgrave" unicode="&#x210;" horiz-adv-x="1422" 
d="M563 1590h-244l-278 318h270zM1000 1590h-244l-278 318h271zM477 1199v-444h265c76 0 135.167 19.5 177.5 58.5s63.5 93.167 63.5 162.5c0 68.667 -22 123 -66 163s-103.333 60 -178 60h-262zM477 523v-522.999h-302v1443h606c158.667 0 283.667 -41.333 375 -124
s137 -195.667 137 -339c0 -93.333 -23.167 -176.833 -69.5 -250.5s-110.5 -126.834 -192.5 -159.501l304 -570h-342l-269 523h-247z" />
    <glyph glyph-name="rdblgrave" unicode="&#x211;" horiz-adv-x="881" 
d="M146 0l0.000976562 1103h282v-176h18c14.667 56 48.167 102.333 100.5 139s113.166 55 182.499 55c50 0 88 -4.66699 114 -14v-265c-30.667 12 -76.667 18 -138 18c-80.667 0 -145.5 -22.333 -194.5 -67s-73.5 -105.334 -73.5 -182.001v-611h-291zM363.001 1281h-230
l-241 353h258zM799.001 1281h-230l-241 353h258z" />
    <glyph glyph-name="Rinvertedbreve" unicode="&#x212;" horiz-adv-x="1422" 
d="M477 1199v-444h265c76 0 135.167 19.5 177.5 58.5s63.5 93.167 63.5 162.5c0 68.667 -22 123 -66 163s-103.333 60 -178 60h-262zM477 523v-522.999h-302v1443h606c158.667 0 283.667 -41.333 375 -124s137 -195.667 137 -339c0 -93.333 -23.167 -176.833 -69.5 -250.5
s-110.5 -126.834 -192.5 -159.501l304 -570h-342l-269 523h-247zM252 1579c0 100.667 36.165 181.834 108.498 243.501s169.5 92.5 291.5 92.5s219.167 -30.833 291.5 -92.5s108.5 -142.834 108.5 -243.501h-208c-1.33301 50.667 -19.166 90.834 -53.499 120.501
s-80.5 44.5 -138.5 44.5s-104.167 -14.833 -138.5 -44.5s-52.166 -69.834 -53.499 -120.501h-208z" />
    <glyph glyph-name="rinvertedbreve" unicode="&#x213;" horiz-adv-x="881" 
d="M146 0l0.000976562 1103h282v-176h18c14.667 56 48.167 102.333 100.5 139s113.166 55 182.499 55c50 0 88 -4.66699 114 -14v-265c-30.667 12 -76.667 18 -138 18c-80.667 0 -145.5 -22.333 -194.5 -67s-73.5 -105.334 -73.5 -182.001v-611h-291zM48.001 1251
c0 104 36.167 188.5 108.5 253.5s169.5 97.5 291.5 97.5s219.167 -32.5 291.5 -97.5s108.5 -149.5 108.5 -253.5h-208c-1.33301 54 -19 97.167 -53 129.5s-80.333 48.5 -139 48.5s-105 -16.167 -139 -48.5s-51.667 -75.5 -53 -129.5h-208z" />
    <glyph glyph-name="Udblgrave" unicode="&#x214;" horiz-adv-x="1565" 
d="M693 1590h-244l-278 318h270zM1130 1590h-244l-278 318h271zM480 1443v-914c0 -92 26.5 -164.667 79.5 -218s127.167 -80 222.5 -80c96 0 170.5 26.667 223.5 80s79.5 126 79.5 218v914h302v-945c0 -160.667 -54.833 -290 -164.5 -388s-256.5 -147 -440.5 -147
c-183.333 0 -329.833 49 -439.5 147s-164.5 227.333 -164.5 388v945h302z" />
    <glyph glyph-name="udblgrave" unicode="&#x215;" horiz-adv-x="1290" 
d="M1144 1103v-1103h-282v177h-18c-54.667 -134 -162 -201 -322 -201c-119.333 0 -213.5 36.167 -282.5 108.5s-103.5 172.166 -103.5 299.499v719h291v-644c0 -153.333 67.667 -230 203 -230c71.333 0 126.333 21 165 63s58 100.333 58 175v636h291zM555 1281h-230
l-241 353h258zM991 1281h-230l-241 353h258z" />
    <glyph glyph-name="Uinvertedbreve" unicode="&#x216;" horiz-adv-x="1565" 
d="M480 1443v-914c0 -92 26.5 -164.667 79.5 -218s127.167 -80 222.5 -80c96 0 170.5 26.667 223.5 80s79.5 126 79.5 218v914h302v-945c0 -160.667 -54.833 -290 -164.5 -388s-256.5 -147 -440.5 -147c-183.333 0 -329.833 49 -439.5 147s-164.5 227.333 -164.5 388v945
h302zM382 1579c0 100.667 36.165 181.834 108.498 243.501s169.5 92.5 291.5 92.5s219.167 -30.833 291.5 -92.5s108.5 -142.834 108.5 -243.501h-208c-1.33301 50.667 -19.166 90.834 -53.499 120.501s-80.5 44.5 -138.5 44.5s-104.167 -14.833 -138.5 -44.5
s-52.166 -69.834 -53.499 -120.501h-208z" />
    <glyph glyph-name="uinvertedbreve" unicode="&#x217;" horiz-adv-x="1290" 
d="M1144 1103v-1103h-282v177h-18c-54.667 -134 -162 -201 -322 -201c-119.333 0 -213.5 36.167 -282.5 108.5s-103.5 172.166 -103.5 299.499v719h291v-644c0 -153.333 67.667 -230 203 -230c71.333 0 126.333 21 165 63s58 100.333 58 175v636h291zM240 1251
c0 104 36.167 188.5 108.5 253.5s169.5 97.5 291.5 97.5s219.167 -32.5 291.5 -97.5s108.5 -149.5 108.5 -253.5h-208c-1.33301 54 -19 97.167 -53 129.5s-80.333 48.5 -139 48.5s-105 -16.167 -139 -48.5s-51.667 -75.5 -53 -129.5h-208z" />
    <glyph glyph-name="Scommaaccent" unicode="&#x218;" horiz-adv-x="1383" 
d="M110 401l291.999 0.000976562c6.66699 -58.667 37.334 -105.334 92.001 -140.001s124.667 -52 210 -52c78.667 0 143 17.167 193 51.5s75 78.833 75 133.5c0 46 -19.333 83.333 -58 112s-102.334 52.334 -191.001 71.001l-188 40c-261.333 54.667 -392 192 -392 412
c0 136 50.333 245.167 151 327.5s234.334 123.5 401.001 123.5c158.667 0 289.167 -40.333 391.5 -121s155.833 -185.334 160.5 -314.001h-284c-7.33301 57.333 -35.333 103.333 -84 138s-109.334 52 -182.001 52c-76 0 -136.833 -16.333 -182.5 -49
s-68.5 -76.334 -68.5 -131.001c0 -44.667 18.5 -80.667 55.5 -108s97.833 -50 182.5 -68l174 -37c144.667 -30.667 250 -78.667 316 -144s99 -154 99 -266c0 -145.333 -52.167 -259.833 -156.5 -343.5s-247.166 -125.5 -428.499 -125.5c-172 0 -310 39.333 -414 118
s-158.667 185.334 -164 320.001zM681.999 -508.999h-258l132 358h292z" />
    <glyph glyph-name="scommaaccent" unicode="&#x219;" horiz-adv-x="1160" 
d="M121 779c0 104.667 42.166 188.836 126.499 252.503s195.166 95.5 332.499 95.5c140 0 249.833 -28.333 329.5 -85s123.5 -137.667 131.5 -243h-269c-7.33301 36 -27.5 64.167 -60.5 84.5s-76.167 30.5 -129.5 30.5c-52.667 0 -96 -10.833 -130 -32.5
s-51 -49.834 -51 -84.501c0 -26.667 12 -48.834 36 -66.501s61.667 -32.167 113 -43.5l207 -45c107.333 -23.333 185.833 -59 235.5 -107s74.5 -113 74.5 -195c0 -109.333 -44.667 -197.333 -134 -264s-206.666 -100 -351.999 -100s-260.333 28.667 -345 86
s-132 139 -142 245h284c23.333 -78.667 93 -118 209 -118c56.667 0 102.667 10.833 138 32.5s53 50.167 53 85.5c0 27.333 -11 49.5 -33 66.5s-57.333 30.833 -106 41.5l-200 45c-107.333 23.333 -187.166 61.166 -239.499 113.499s-78.5 120.833 -78.5 205.5z
M574.999 -508.998h-258l132 358h292z" />
    <glyph glyph-name="Tcommaaccent" unicode="&#x21a;" horiz-adv-x="1352" 
d="M667 -509h-258l132 358h292zM827 0h-302v1185h-433v258h1168v-258h-433v-1185z" />
    <glyph glyph-name="tcommaaccent" unicode="&#x21b;" horiz-adv-x="845" 
d="M478 -509h-258l132 358h292zM229 1365h291v-273h229v-229h-229v-496c0 -48 11.5 -83.333 34.5 -106s59.167 -34 108.5 -34c32.667 0 61.334 1.33301 86.001 4v-222c-44.667 -8.66699 -93.334 -13 -146.001 -13c-134 0 -229.833 23.333 -287.5 70s-86.5 124 -86.5 232v565
h-172v229h172v273z" />
    <glyph glyph-name="Hcaron" unicode="&#x21e;" horiz-adv-x="1604" 
d="M1429 0h-302v603h-650v-603h-302v1443h302v-582h650v582h302v-1443zM929 1590h-254l-281 318h253l145 -173h20l145 173h253z" />
    <glyph glyph-name="hcaron" unicode="&#x21f;" horiz-adv-x="1307" 
d="M156 0v1524h286v-602h18c26 63.333 67.833 112.833 125.5 148.5s126.834 53.5 207.501 53.5c119.333 0 212.166 -36 278.499 -108s99.5 -174 99.5 -306v-710h-291v641c0 76 -17.333 133.667 -52 173s-85 59 -151 59c-72 0 -128.333 -21.833 -169 -65.5
s-61 -101.834 -61 -174.501v-633h-291zM426 1671h-254l-281 318h253l145 -173h20l145 173h253z" />
    <glyph glyph-name="Adotaccent" unicode="&#x226;" horiz-adv-x="1500" 
d="M1102 0l-109 344h-507l-111 -344h-303l501 1443h355l501 -1443h-327zM732 1143l-181 -566h378l-179 566h-18zM750 1579c-46 0 -83.833 15 -113.5 45s-44.5 67.667 -44.5 113s14.833 83 44.5 113s67.5 45 113.5 45s83.667 -15 113 -45s44 -67.667 44 -113
s-14.667 -83 -44 -113s-67 -45 -113 -45z" />
    </font>
</defs>
</svg>
