<?xml version="1.0" standalone="no"?>
<!DOCTYPE svg PUBLIC "-//W3C//DTD SVG 1.1//EN" "http://www.w3.org/Graphics/SVG/1.1/DTD/svg11.dtd" >
<svg xmlns="http://www.w3.org/2000/svg" xmlns:xlink="http://www.w3.org/1999/xlink" version="1.1">
<metadata>
Created by FontForge 20170731 at Thu Feb  4 08:26:01 2010
 By Aleksey,,,
Copyright 2000, 2002, 2004 Adobe Systems Incorporated. All Rights Reserved.
</metadata>
<defs>
<font id="AdobeArabic-Regular" horiz-adv-x="0" >
  <font-face 
    font-family="Adobe Arabic"
    font-weight="400"
    font-stretch="normal"
    units-per-em="2048"
    panose-1="2 4 5 3 5 2 1 2 2 3"
    ascent="1368"
    descent="-680"
    x-height="638"
    cap-height="951"
    bbox="-894 -1122 3555 1792"
    underline-thickness="50"
    underline-position="-150"
    unicode-range="U+0020-FEFC"
  />
<missing-glyph horiz-adv-x="728" 
d="M728 0h-728v1020h728v-1020zM612 947h-495l247 -372zM655 138v743l-247 -371zM117 73h495l-248 371zM73 881v-743l247 372z" />
    <glyph glyph-name="f_i" unicode="fi" horiz-adv-x="811" 
d="M785 0h-323v39q61 7 75.5 24t14.5 84v348q0 54 -12 68t-67 14h-195v-430q0 -67 17.5 -84t86.5 -24v-39h-337v39q70 8 87.5 25t17.5 83v430h-108l-7 17l42 44h73v36q0 62 20 120q39 101 123 166q94 73 189 80q109 -4 162 -71q19 -28 7 -59q-13 -26 -35 -36q-27 -18 -45 1
q-75 94 -157 94q-60 0 -92 -57q-44 -67 -44 -222v-52h123q188 0 281 19v-510q0 -68 16 -84.5t87 -23.5v-39z" />
    <glyph glyph-name="f_l" unicode="fl" horiz-adv-x="808" 
d="M788 0h-328v39q62 7 77 24t15 84v756q-19 31 -56.5 50.5t-75.5 19.5q-60 0 -97 -50q-45 -60 -45 -201v-84h172q6 -9 1.5 -31.5t-17.5 -29.5h-156v-431q0 -67 15.5 -83.5t83.5 -23.5v-39h-332v39q72 8 88.5 24.5t16.5 82.5v431h-106l-6 19l41 42h71v26q0 79 20 136
q38 98 123 166q81 63 176 74q75 0 128 -33q23 5 72 30l13 -9v-881q0 -67 17 -83.5t89 -24.5v-39z" />
    <glyph glyph-name="uniFC31" unicode="&#xfed3;&#xfef0;" horiz-adv-x="1013" arabic-form="isolated" 
d="M519 949q49 65 81 102q60 -44 120 -107q-35 -57 -83 -98q-27 26 -118 103zM808 307q0 5 -1.5 15.5t-1.5 15.5q-44 -11 -104 -11q-179 0 -223 100q-14 33 -14 68q0 113 70 185q59 62 121 62q110 0 180 -185q38 -102 38 -235q0 -74 -46 -142q67 -22 86.5 -48.5t19.5 -83.5
q0 -60 -27 -114q-30 -57 -123 -119q-157 -107 -342 -107q-146 0 -248 95q-103 109 -103 267q0 163 66 314l40 -15q-38 -107 -38 -210q0 -114 58 -197q93 -114 237 -114q155 0 289 74q89 49 132 102q0 28 -112 51t-243 23l-4 7l44 103q127 15 188 38t61 61zM792 448
q-55 171 -158 171q-43 0 -78.5 -29t-35.5 -59q0 -36 58.5 -61.5t131.5 -25.5q56 0 82 4z" />
    <glyph glyph-name="uniFC32" unicode="&#xfed3;&#xfef2;" horiz-adv-x="1013" arabic-form="isolated" 
d="M519 949q49 65 81 102q60 -44 120 -107q-35 -57 -83 -98q-27 26 -118 103zM808 307q0 5 -1.5 15.5t-1.5 15.5q-44 -11 -104 -11q-179 0 -223 100q-14 33 -14 68q0 113 70 185q59 62 121 62q110 0 180 -185q38 -102 38 -235q0 -74 -46 -142q67 -22 86.5 -48.5t19.5 -83.5
q0 -60 -27 -114q-30 -57 -123 -119q-157 -107 -342 -107q-146 0 -248 95q-103 109 -103 267q0 163 66 314l40 -15q-38 -107 -38 -210q0 -114 58 -197q93 -114 237 -114q155 0 289 74q89 49 132 102q0 28 -112 51t-243 23l-4 7l44 103q127 15 188 38t61 61zM792 448
q-55 171 -158 171q-43 0 -78.5 -29t-35.5 -59q0 -36 58.5 -61.5t131.5 -25.5q56 0 82 4zM683 -493q-43 -61 -76 -92q-59 56 -117 104q37 52 79 95q53 -42 114 -107zM490 -506q-43 -61 -76 -92q-59 56 -117 104q37 52 79 95q53 -42 114 -107z" />
    <glyph glyph-name="uniFC43" unicode="&#xfedf;&#xfef0;" horiz-adv-x="1003" arabic-form="isolated" 
d="M810 1029l7 -5q-3 -90 81 -229q-31 -29 -66 -54q1 -38 4.5 -109t5.5 -128.5t2 -106.5q0 -88 -13.5 -153t-51.5 -131q85 -20 112 -51t27 -97q0 -56 -41 -135q-206 -202 -450 -202q-69 0 -132 26t-107 68q-104 110 -104 268q0 142 75 314l39 -15q-45 -126 -45 -210
q0 -114 58 -197q93 -114 228 -114q164 0 288 75q98 59 127 99q0 27 -97 50.5t-218 32.5l-7 9l48 104q139 21 180 73q2 36 2 109q-3 202 -26 462q-1 16 -4 42.5t-5 46.5t-2 36q0 34 30 67q21 26 55 55z" />
    <glyph glyph-name="uniFC44" unicode="&#xfedf;&#xfef2;" horiz-adv-x="1003" arabic-form="isolated" 
d="M810 1029l7 -5q-3 -90 81 -229q-31 -29 -66 -54q1 -38 4.5 -109t5.5 -128.5t2 -106.5q0 -88 -13.5 -153t-51.5 -131q85 -20 112 -51t27 -97q0 -56 -41 -135q-206 -202 -450 -202q-69 0 -132 26t-107 68q-104 110 -104 268q0 142 75 314l39 -15q-45 -126 -45 -210
q0 -114 58 -197q93 -114 228 -114q164 0 288 75q98 59 127 99q0 27 -97 50.5t-218 32.5l-7 9l48 104q139 21 180 73q2 36 2 109q-3 202 -26 462q-1 16 -4 42.5t-5 46.5t-2 36q0 34 30 67q21 26 55 55zM664 -553q-43 -61 -76 -92q-59 56 -117 104q37 52 79 95
q53 -42 114 -107zM471 -566q-43 -61 -76 -92q-59 56 -117 104q37 52 79 95q53 -42 114 -107z" />
    <glyph glyph-name="uniFC64" unicode="&#xfe8c;&#xfeae;" horiz-adv-x="910" arabic-form="final" 
d="M832 699v-3q-19 -39 -39 -68q-146 -23 -260 -75l-2 3l24 42q19 24 46 33v3q-78 23 -78 87q0 41 47 88q64 57 121 57q29 0 46 -14.5t17 -34.5q0 -27 -32 -65h-2q-18 35 -32 39q-10 3 -31 3q-25 0 -47.5 -11.5t-22.5 -23.5q0 -22 24.5 -37.5t55 -21t63.5 -5.5q34 0 102 4z
M694 479h10q2 -9 5 -29t9.5 -55.5t12.5 -71.5q25 -136 85 -173q41 -22 81 -22h13v-128h-18q-89 0 -134 47t-75 169l-25 102h-5q-24 -49 -62.5 -79.5t-85.5 -27.5q14 -60 14 -138q0 -24 -2 -52q-6 -58 -57 -134q-48 -72 -102 -112t-95 -40q-61 0 -121 19.5t-140 59.5l14 32
q54 -25 94 -25q154 0 274 142q81 95 81 141q-11 29 -33.5 61.5t-39 51.5t-52.5 57l33 128h9q46 -42 73 -63q32 -22 84 -22q38 0 71 27q14 11 27 31.5t29 52.5t28 51z" />
    <glyph glyph-name="uniFC67" unicode="&#xfe8c;&#xfee6;" horiz-adv-x="1120" arabic-form="final" 
d="M310 640q49 65 81 102q60 -44 120 -107q-35 -57 -83 -98q-27 26 -118 103zM1057 699v-3q-19 -39 -39 -68q-146 -23 -260 -75l-2 3l24 42q19 24 46 33v3q-78 23 -78 87q0 41 47 88q64 57 121 57q29 0 46 -14.5t17 -34.5q0 -27 -32 -65h-2q-18 35 -32 39q-10 3 -31 3
q-25 0 -47.5 -11.5t-22.5 -23.5q0 -22 24.5 -37.5t55 -21t63.5 -5.5q34 0 102 4zM904 489h10q1 -6 5.5 -28t10.5 -55t13 -71q27 -144 84 -180q50 -27 79 -27h14v-128h-16q-88 0 -133.5 51t-76.5 174l-26 103h-5q-50 -101 -141 -104q30 -75 30 -188q0 -90 -29 -162
q-39 -59 -106 -107q-107 -68 -225 -68q-137 0 -217 87.5t-80 228.5q0 119 50 236l35 -13q-27 -91 -27 -163q0 -106 72 -173.5t167 -67.5q104 0 201 56q104 71 104 124q0 37 -22 100q-25 69 -126 170l36 130l10 1q47 -44 74 -64q30 -21 81 -21q40 0 70 24q14 11 27 31.5
t29 52.5t28 51z" />
    <glyph glyph-name="uniFC6A" unicode="&#xfe92;&#xfeae;" horiz-adv-x="910" arabic-form="final" 
d="M585 -301q49 65 81 102q60 -44 120 -107q-35 -57 -83 -98q-27 26 -118 103zM694 479h10q2 -9 5 -29t9.5 -55.5t12.5 -71.5q25 -136 85 -173q41 -22 81 -22h13v-128h-18q-89 0 -134 47t-75 169l-25 102h-5q-24 -49 -62.5 -79.5t-85.5 -27.5q14 -60 14 -138q0 -24 -2 -52
q-6 -58 -57 -134q-48 -72 -102 -112t-95 -40q-61 0 -121 19.5t-140 59.5l14 32q54 -25 94 -25q154 0 274 142q81 95 81 141q-11 29 -33.5 61.5t-39 51.5t-52.5 57l33 128h9q46 -42 73 -63q32 -22 84 -22q38 0 71 27q14 11 27 31.5t29 52.5t28 51z" />
    <glyph glyph-name="uniFC70" unicode="&#xfe98;&#xfeae;" horiz-adv-x="910" arabic-form="final" 
d="M851 692q-43 -61 -76 -92q-59 56 -117 104q37 52 79 95q53 -42 114 -107zM658 679q-43 -61 -76 -92q-59 56 -117 104q37 52 79 95q53 -42 114 -107zM694 479h10q2 -9 5 -29t9.5 -55.5t12.5 -71.5q25 -136 85 -173q41 -22 81 -22h13v-128h-18q-89 0 -134 47t-75 169
l-25 102h-5q-24 -49 -62.5 -79.5t-85.5 -27.5q14 -60 14 -138q0 -24 -2 -52q-6 -58 -57 -134q-48 -72 -102 -112t-95 -40q-61 0 -121 19.5t-140 59.5l14 32q54 -25 94 -25q154 0 274 142q81 95 81 141q-11 29 -33.5 61.5t-39 51.5t-52.5 57l33 128h9q46 -42 73 -63
q32 -22 84 -22q38 0 71 27q14 11 27 31.5t29 52.5t28 51z" />
    <glyph glyph-name="uniFC86" unicode="&#xfee0;&#xfef0;" horiz-adv-x="1240" arabic-form="final" 
d="M1027 1043l10 -6q13 -251 13 -646q0 -142 59 -218q46 -45 117 -45h14v-128h-18q-83 0 -139.5 40t-80.5 100t-25 136h-5q-28 -107 -150 -179v-3q53 -14 74.5 -44t21.5 -85q0 -56 -41 -135q-206 -202 -450 -202q-69 0 -132 26t-107 68q-104 110 -104 268q0 142 75 314
l39 -15q-45 -126 -45 -210q0 -114 58 -197q93 -114 228 -114q162 0 288 75q96 57 127 99q0 27 -96 50t-217 32l-5 9l53 110q164 23 269 86q36 26 54.5 45.5t29.5 53.5t13.5 72t2.5 113q0 111 -17 436q51 62 86 94z" />
    <glyph glyph-name="uniFC87" unicode="&#xfee0;&#xfef2;" horiz-adv-x="1240" arabic-form="final" 
d="M1027 1043l10 -6q13 -251 13 -646q0 -142 59 -218q46 -45 117 -45h14v-128h-18q-83 0 -139.5 40t-80.5 100t-25 136h-5q-28 -107 -150 -179v-3q53 -14 74.5 -44t21.5 -85q0 -56 -41 -135q-206 -202 -450 -202q-69 0 -132 26t-107 68q-104 110 -104 268q0 142 75 314
l39 -15q-45 -126 -45 -210q0 -114 58 -197q93 -114 228 -114q162 0 288 75q96 57 127 99q0 27 -96 50t-217 32l-5 9l53 110q164 23 269 86q36 26 54.5 45.5t29.5 53.5t13.5 72t2.5 113q0 111 -17 436q51 62 86 94zM674 -553q-43 -61 -76 -92q-59 56 -117 104q37 52 79 95
q53 -42 114 -107zM481 -566q-43 -61 -76 -92q-59 56 -117 104q37 52 79 95q53 -42 114 -107z" />
    <glyph glyph-name="uniFCCC" unicode="&#xfedf;&#xfee4;" horiz-adv-x="689" arabic-form="initial" 
d="M247 87l-5 -1q-55 -46 -106.5 -66t-121.5 -20h-14q-37 0 -53.5 20.5t-16.5 46.5q0 23 17 42t53 19h9q126 0 227 71q-22 237 -22 550q0 19 -4 73t-4 78q0 53 31 88q20 24 56 52l10 -6q-3 -18 -3 -42q2 -87 77 -204l-73 -51q0 -372 17 -487l4 -2q62 35 128 35q67 0 114 -55
q48 -54 48 -138q0 -87 -49 -139.5t-109 -52.5q-69 0 -124 51t-86 138zM340 143q18 -57 65.5 -95.5t97.5 -38.5q28 0 49 18q0 48 -37 93q-36 45 -94 45q-47 0 -81 -22z" />
    <glyph glyph-name="uniFCFB" unicode="&#xfeb3;&#xfef0;" horiz-adv-x="1587" arabic-form="isolated" 
d="M1047 128q48 0 89 29q6 4 10.5 8.5t9 10.5t7.5 10.5t7 14t6 15t6.5 19.5t7 22t8 27.5t9.5 31.5l60 35l6 -4q-13 -52 -13 -98q0 -53 32 -84t72 -31q22 0 37.5 12t15.5 33q0 49 -25 162q42 49 90 90l6 -3q16 -100 16 -178q0 -67 -36 -137q-66 -110 -148 -110q-66 0 -125 83
h-8q-39 -42 -76 -64t-88 -22q-67 0 -113 57.5t-46 130.5q0 30 -29 52t-68 22q-65 0 -132 -50.5t-67 -96.5q0 -55 164 -83q68 -12 100 -28.5t45 -49.5q12 -30 12 -60q0 -39 -32 -110q-31 -50 -136 -106q-158 -82 -299 -82q-148 0 -241.5 90t-93.5 264q0 128 65 276l42 -19
q-41 -87 -41 -195q0 -133 84.5 -210t211.5 -77q84 0 191 39q139 55 185 109q0 18 -132 43q-95 15 -144.5 48t-49.5 109q0 44 26.5 109t69.5 109q97 102 205 102q56 0 79 -32t37 -99q15 -62 51.5 -98t79.5 -36z" />
    <glyph glyph-name="uniFCFC" unicode="&#xfeb3;&#xfef2;" horiz-adv-x="1587" arabic-form="isolated" 
d="M1047 128q48 0 89 29q6 4 10.5 8.5t9 10.5t7.5 10.5t7 14t6 15t6.5 19.5t7 22t8 27.5t9.5 31.5l60 35l6 -4q-13 -52 -13 -98q0 -53 32 -84t72 -31q22 0 37.5 12t15.5 33q0 49 -25 162q42 49 90 90l6 -3q16 -100 16 -178q0 -67 -36 -137q-66 -110 -148 -110q-66 0 -125 83
h-8q-39 -42 -76 -64t-88 -22q-67 0 -113 57.5t-46 130.5q0 30 -29 52t-68 22q-65 0 -132 -50.5t-67 -96.5q0 -55 164 -83q68 -12 100 -28.5t45 -49.5q12 -30 12 -60q0 -39 -32 -110q-31 -50 -136 -106q-158 -82 -299 -82q-148 0 -241.5 90t-93.5 264q0 128 65 276l42 -19
q-41 -87 -41 -195q0 -133 84.5 -210t211.5 -77q84 0 191 39q139 55 185 109q0 18 -132 43q-95 15 -144.5 48t-49.5 109q0 44 26.5 109t69.5 109q97 102 205 102q56 0 79 -32t37 -99q15 -62 51.5 -98t79.5 -36zM674 -573q-43 -61 -76 -92q-59 56 -117 104q37 52 79 95
q53 -42 114 -107zM481 -586q-43 -61 -76 -92q-59 56 -117 104q37 52 79 95q53 -42 114 -107z" />
    <glyph glyph-name="uniFCFD" unicode="&#xfeb7;&#xfef0;" horiz-adv-x="1587" arabic-form="isolated" 
d="M1047 128q48 0 89 29q6 4 10.5 8.5t9 10.5t7.5 10.5t7 14t6 15t6.5 19.5t7 22t8 27.5t9.5 31.5l60 35l6 -4q-13 -52 -13 -98q0 -53 32 -84t72 -31q22 0 37.5 12t15.5 33q0 49 -25 162q42 49 90 90l6 -3q16 -100 16 -178q0 -67 -36 -137q-66 -110 -148 -110q-66 0 -125 83
h-8q-39 -42 -76 -64t-88 -22q-67 0 -113 57.5t-46 130.5q0 30 -29 52t-68 22q-65 0 -132 -50.5t-67 -96.5q0 -55 164 -83q68 -12 100 -28.5t45 -49.5q12 -30 12 -60q0 -39 -32 -110q-31 -50 -136 -106q-158 -82 -299 -82q-148 0 -241.5 90t-93.5 264q0 128 65 276l42 -19
q-41 -87 -41 -195q0 -133 84.5 -210t211.5 -77q84 0 191 39q139 55 185 109q0 18 -132 43q-95 15 -144.5 48t-49.5 109q0 44 26.5 109t69.5 109q97 102 205 102q56 0 79 -32t37 -99q15 -62 51.5 -98t79.5 -36zM1262 802q-43 -61 -76 -92q-59 56 -117 104q37 52 79 95
q53 -42 114 -107zM1208 589q-43 -61 -76 -92q-59 56 -117 104q37 52 79 95q53 -42 114 -107zM1401 602q-43 -61 -76 -92q-59 56 -117 104q37 52 79 95q53 -42 114 -107z" />
    <glyph glyph-name="uniFCFE" unicode="&#xfeb7;&#xfef2;" horiz-adv-x="1587" arabic-form="isolated" 
d="M1047 128q48 0 89 29q6 4 10.5 8.5t9 10.5t7.5 10.5t7 14t6 15t6.5 19.5t7 22t8 27.5t9.5 31.5l60 35l6 -4q-13 -52 -13 -98q0 -53 32 -84t72 -31q22 0 37.5 12t15.5 33q0 49 -25 162q42 49 90 90l6 -3q16 -100 16 -178q0 -67 -36 -137q-66 -110 -148 -110q-66 0 -125 83
h-8q-39 -42 -76 -64t-88 -22q-67 0 -113 57.5t-46 130.5q0 30 -29 52t-68 22q-65 0 -132 -50.5t-67 -96.5q0 -55 164 -83q68 -12 100 -28.5t45 -49.5q12 -30 12 -60q0 -39 -32 -110q-31 -50 -136 -106q-158 -82 -299 -82q-148 0 -241.5 90t-93.5 264q0 128 65 276l42 -19
q-41 -87 -41 -195q0 -133 84.5 -210t211.5 -77q84 0 191 39q139 55 185 109q0 18 -132 43q-95 15 -144.5 48t-49.5 109q0 44 26.5 109t69.5 109q97 102 205 102q56 0 79 -32t37 -99q15 -62 51.5 -98t79.5 -36zM674 -573q-43 -61 -76 -92q-59 56 -117 104q37 52 79 95
q53 -42 114 -107zM481 -586q-43 -61 -76 -92q-59 56 -117 104q37 52 79 95q53 -42 114 -107zM1292 802q-43 -61 -76 -92q-59 56 -117 104q37 52 79 95q53 -42 114 -107zM1238 589q-43 -61 -76 -92q-59 56 -117 104q37 52 79 95q53 -42 114 -107zM1431 602q-43 -61 -76 -92
q-59 56 -117 104q37 52 79 95q53 -42 114 -107z" />
    <glyph glyph-name="uniFD05" unicode="&#xfebb;&#xfef0;" horiz-adv-x="1765" arabic-form="isolated" 
d="M1028 174q105 161 206 251q122 109 240 109q67 0 114.5 -32t71.5 -78q25 -51 25 -117q0 -41 -19 -95q-43 -127 -208 -181q-90 -31 -249 -31h-5q-100 0 -168 26l-55 -106l-14 3q5 70 16 130q-26 11 -59.5 49t-52.5 88q-29 72 -105 72q-65 0 -131.5 -50.5t-66.5 -96.5
q0 -55 164 -83q68 -12 100 -28.5t45 -49.5q12 -30 12 -60q0 -39 -32 -110q-31 -50 -136 -106q-158 -82 -299 -82q-148 0 -241.5 90t-93.5 264q0 128 65 276l42 -19q-41 -87 -41 -195q0 -133 84.5 -210t211.5 -77q84 0 191 39q139 55 185 109q0 18 -132 43q-95 15 -144.5 48
t-49.5 109q0 44 26.5 109t69.5 109q98 103 205 103q38 0 64 -20t37 -51q40 -100 127 -149zM1077 149q63 -21 187 -21q141 0 260 57q82 39 82 72q-10 65 -58 108.5t-114 43.5q-86 0 -181 -71.5t-176 -188.5z" />
    <glyph glyph-name="uniFD06" unicode="&#xfebb;&#xfef2;" horiz-adv-x="1765" arabic-form="isolated" 
d="M1028 174q105 161 206 251q122 109 240 109q67 0 114.5 -32t71.5 -78q25 -51 25 -117q0 -41 -19 -95q-43 -127 -208 -181q-90 -31 -249 -31h-5q-100 0 -168 26l-55 -106l-14 3q5 70 16 130q-26 11 -59.5 49t-52.5 88q-29 72 -105 72q-65 0 -131.5 -50.5t-66.5 -96.5
q0 -55 164 -83q68 -12 100 -28.5t45 -49.5q12 -30 12 -60q0 -39 -32 -110q-31 -50 -136 -106q-158 -82 -299 -82q-148 0 -241.5 90t-93.5 264q0 128 65 276l42 -19q-41 -87 -41 -195q0 -133 84.5 -210t211.5 -77q84 0 191 39q139 55 185 109q0 18 -132 43q-95 15 -144.5 48
t-49.5 109q0 44 26.5 109t69.5 109q98 103 205 103q38 0 64 -20t37 -51q40 -100 127 -149zM1077 149q63 -21 187 -21q141 0 260 57q82 39 82 72q-10 65 -58 108.5t-114 43.5q-86 0 -181 -71.5t-176 -188.5zM674 -573q-43 -61 -76 -92q-59 56 -117 104q37 52 79 95
q53 -42 114 -107zM481 -586q-43 -61 -76 -92q-59 56 -117 104q37 52 79 95q53 -42 114 -107z" />
    <glyph glyph-name="uniFD07" unicode="&#xfebf;&#xfef0;" horiz-adv-x="1765" arabic-form="isolated" 
d="M1028 174q105 161 206 251q122 109 240 109q67 0 114.5 -32t71.5 -78q25 -51 25 -117q0 -41 -19 -95q-43 -127 -208 -181q-90 -31 -249 -31h-5q-100 0 -168 26l-55 -106l-14 3q5 70 16 130q-26 11 -59.5 49t-52.5 88q-29 72 -105 72q-65 0 -131.5 -50.5t-66.5 -96.5
q0 -55 164 -83q68 -12 100 -28.5t45 -49.5q12 -30 12 -60q0 -39 -32 -110q-31 -50 -136 -106q-158 -82 -299 -82q-148 0 -241.5 90t-93.5 264q0 128 65 276l42 -19q-41 -87 -41 -195q0 -133 84.5 -210t211.5 -77q84 0 191 39q139 55 185 109q0 18 -132 43q-95 15 -144.5 48
t-49.5 109q0 44 26.5 109t69.5 109q98 103 205 103q38 0 64 -20t37 -51q40 -100 127 -149zM1077 149q63 -21 187 -21q141 0 260 57q82 39 82 72q-10 65 -58 108.5t-114 43.5q-86 0 -181 -71.5t-176 -188.5zM1155 769q49 65 81 102q60 -44 120 -107q-35 -57 -83 -98
q-27 26 -118 103z" />
    <glyph glyph-name="uniFD08" unicode="&#xfebf;&#xfef2;" horiz-adv-x="1765" arabic-form="isolated" 
d="M1028 174q105 161 206 251q122 109 240 109q67 0 114.5 -32t71.5 -78q25 -51 25 -117q0 -41 -19 -95q-43 -127 -208 -181q-90 -31 -249 -31h-5q-100 0 -168 26l-55 -106l-14 3q5 70 16 130q-26 11 -59.5 49t-52.5 88q-29 72 -105 72q-65 0 -131.5 -50.5t-66.5 -96.5
q0 -55 164 -83q68 -12 100 -28.5t45 -49.5q12 -30 12 -60q0 -39 -32 -110q-31 -50 -136 -106q-158 -82 -299 -82q-148 0 -241.5 90t-93.5 264q0 128 65 276l42 -19q-41 -87 -41 -195q0 -133 84.5 -210t211.5 -77q84 0 191 39q139 55 185 109q0 18 -132 43q-95 15 -144.5 48
t-49.5 109q0 44 26.5 109t69.5 109q98 103 205 103q38 0 64 -20t37 -51q40 -100 127 -149zM1077 149q63 -21 187 -21q141 0 260 57q82 39 82 72q-10 65 -58 108.5t-114 43.5q-86 0 -181 -71.5t-176 -188.5zM674 -573q-43 -61 -76 -92q-59 56 -117 104q37 52 79 95
q53 -42 114 -107zM481 -586q-43 -61 -76 -92q-59 56 -117 104q37 52 79 95q53 -42 114 -107zM1165 769q49 65 81 102q60 -44 120 -107q-35 -57 -83 -98q-27 26 -118 103z" />
    <glyph glyph-name="uniFD0D" unicode="&#xfeb7;&#xfeae;" horiz-adv-x="1490" arabic-form="isolated" 
d="M950 128q48 0 89 29q6 4 10.5 8.5t9 10.5t7.5 10.5t7 14t6 15t6.5 19.5t7 22t8 27.5t9.5 31.5l60 35l6 -4q-13 -52 -13 -98q0 -53 32 -84t72 -31q22 0 37.5 12t15.5 33q0 49 -25 162q42 49 90 90l6 -3q16 -100 16 -178q0 -67 -36 -137q-66 -110 -148 -110q-66 0 -125 83
h-8q-77 -86 -158 -86q-73 0 -119.5 52.5t-45.5 138.5q-172 -54 -232 -84q12 -37 12 -74q0 -42 -4 -126q-4 -102 -77 -190q-117 -122 -221 -122t-242 97l15 28q57 -26 122 -26q127 0 258 111q99 102 99 163q0 40 -73 120q9 56 30 121q186 77 373 118l2 -7q-6 -24 -6 -60
q0 -51 38.5 -91.5t88.5 -40.5zM1172 802q-43 -61 -76 -92q-59 56 -117 104q37 52 79 95q53 -42 114 -107zM1118 589q-43 -61 -76 -92q-59 56 -117 104q37 52 79 95q53 -42 114 -107zM1311 602q-43 -61 -76 -92q-59 56 -117 104q37 52 79 95q53 -42 114 -107z" />
    <glyph glyph-name="uniFD0E" unicode="&#xfeb3;&#xfeae;" horiz-adv-x="1490" arabic-form="isolated" 
d="M950 128q48 0 89 29q6 4 10.5 8.5t9 10.5t7.5 10.5t7 14t6 15t6.5 19.5t7 22t8 27.5t9.5 31.5l60 35l6 -4q-13 -52 -13 -98q0 -53 32 -84t72 -31q22 0 37.5 12t15.5 33q0 49 -25 162q42 49 90 90l6 -3q16 -100 16 -178q0 -67 -36 -137q-66 -110 -148 -110q-66 0 -125 83
h-8q-77 -86 -158 -86q-73 0 -119.5 52.5t-45.5 138.5q-172 -54 -232 -84q12 -37 12 -74q0 -42 -4 -126q-4 -102 -77 -190q-117 -122 -221 -122t-242 97l15 28q57 -26 122 -26q127 0 258 111q99 102 99 163q0 40 -73 120q9 56 30 121q186 77 373 118l2 -7q-6 -24 -6 -60
q0 -51 38.5 -91.5t88.5 -40.5z" />
    <glyph glyph-name="uniFD0F" unicode="&#xfebb;&#xfeae;" horiz-adv-x="1690" arabic-form="isolated" 
d="M953 174q105 161 206 251q122 109 240 109q67 0 114.5 -32t71.5 -78q25 -51 25 -117q0 -41 -19 -95q-43 -127 -208 -181q-90 -31 -249 -31q-120 0 -190 33q-33 -46 -84 -136l-21 12q21 84 48 156q-85 63 -94 153q-154 -49 -246 -94q12 -38 12 -73q0 -56 -5 -138
q-6 -96 -87 -193q-118 -122 -221 -122q-104 0 -242 97l15 28q57 -26 122 -26q127 0 258 111q108 111 108 181q0 39 -71 117q9 56 30 121q166 69 362 134q8 -64 35.5 -110.5t89.5 -76.5zM1003 149q63 -21 187 -21q141 0 260 57q82 39 82 72q-10 65 -58 108.5t-114 43.5
q-86 0 -181 -71.5t-176 -188.5z" />
    <glyph glyph-name="uniFD10" unicode="&#xfebf;&#xfeae;" horiz-adv-x="1690" arabic-form="isolated" 
d="M953 174q105 161 206 251q122 109 240 109q67 0 114.5 -32t71.5 -78q25 -51 25 -117q0 -41 -19 -95q-43 -127 -208 -181q-90 -31 -249 -31q-120 0 -190 33q-33 -46 -84 -136l-21 12q21 84 48 156q-85 63 -94 153q-154 -49 -246 -94q12 -38 12 -73q0 -56 -5 -138
q-6 -96 -87 -193q-118 -122 -221 -122q-104 0 -242 97l15 28q57 -26 122 -26q127 0 258 111q108 111 108 181q0 39 -71 117q9 56 30 121q166 69 362 134q8 -64 35.5 -110.5t89.5 -76.5zM1003 149q63 -21 187 -21q141 0 260 57q82 39 82 72q-10 65 -58 108.5t-114 43.5
q-86 0 -181 -71.5t-176 -188.5zM1095 769q49 65 81 102q60 -44 120 -107q-35 -57 -83 -98q-27 26 -118 103z" />
    <glyph glyph-name="uniFD17" unicode="&#xfeb4;&#xfef0;" horiz-adv-x="1697" arabic-form="final" 
d="M800 393q56 0 79 -32t37 -99q15 -62 51.5 -98t79.5 -36q49 0 87 28q42 37 73 154l70 36l6 -4q-5 -21 -11.5 -50.5t-10 -44t-6 -31.5t-2.5 -30q0 -23 14.5 -40.5t41.5 -17.5q36 0 69 22q38 26 58 96q1 5 4.5 16.5t7.5 27.5t8 35l76 51l4 -3q-25 -85 -25 -137
q0 -108 164 -108h22v-128h-25q-164 0 -206 94h-6q-80 -94 -171 -94q-90 0 -109 83h-4q-35 -42 -68.5 -62.5t-84.5 -20.5q-67 0 -113 57.5t-46 130.5q0 30 -29 52t-68 22q-65 0 -132 -50.5t-67 -96.5q0 -55 164 -83q68 -12 100 -28.5t45 -49.5q12 -30 12 -60q0 -39 -32 -110
q-31 -50 -136 -106q-158 -82 -299 -82q-148 0 -241.5 90t-93.5 264q0 128 65 276l42 -19q-41 -87 -41 -195q0 -133 84.5 -210t211.5 -77q84 0 191 39q139 55 185 109q0 18 -132 43q-95 15 -144.5 48t-49.5 109q0 44 26.5 109t69.5 109q97 102 205 102z" />
    <glyph glyph-name="uniFD18" unicode="&#xfeb4;&#xfef2;" horiz-adv-x="1697" arabic-form="final" 
d="M800 393q56 0 79 -32t37 -99q15 -62 51.5 -98t79.5 -36q49 0 87 28q42 37 73 154l70 36l6 -4q-5 -21 -11.5 -50.5t-10 -44t-6 -31.5t-2.5 -30q0 -23 14.5 -40.5t41.5 -17.5q36 0 69 22q38 26 58 96q1 5 4.5 16.5t7.5 27.5t8 35l76 51l4 -3q-25 -85 -25 -137
q0 -108 164 -108h22v-128h-25q-164 0 -206 94h-6q-80 -94 -171 -94q-90 0 -109 83h-4q-35 -42 -68.5 -62.5t-84.5 -20.5q-67 0 -113 57.5t-46 130.5q0 30 -29 52t-68 22q-65 0 -132 -50.5t-67 -96.5q0 -55 164 -83q68 -12 100 -28.5t45 -49.5q12 -30 12 -60q0 -39 -32 -110
q-31 -50 -136 -106q-158 -82 -299 -82q-148 0 -241.5 90t-93.5 264q0 128 65 276l42 -19q-41 -87 -41 -195q0 -133 84.5 -210t211.5 -77q84 0 191 39q139 55 185 109q0 18 -132 43q-95 15 -144.5 48t-49.5 109q0 44 26.5 109t69.5 109q97 102 205 102zM674 -573
q-43 -61 -76 -92q-59 56 -117 104q37 52 79 95q53 -42 114 -107zM481 -586q-43 -61 -76 -92q-59 56 -117 104q37 52 79 95q53 -42 114 -107z" />
    <glyph glyph-name="uniFD19" unicode="&#xfeb8;&#xfef0;" horiz-adv-x="1697" arabic-form="final" 
d="M800 393q56 0 79 -32t37 -99q15 -62 51.5 -98t79.5 -36q49 0 87 28q42 37 73 154l70 36l6 -4q-5 -21 -11.5 -50.5t-10 -44t-6 -31.5t-2.5 -30q0 -23 14.5 -40.5t41.5 -17.5q36 0 69 22q38 26 58 96q1 5 4.5 16.5t7.5 27.5t8 35l76 51l4 -3q-25 -85 -25 -137
q0 -108 164 -108h22v-128h-25q-164 0 -206 94h-6q-80 -94 -171 -94q-90 0 -109 83h-4q-35 -42 -68.5 -62.5t-84.5 -20.5q-67 0 -113 57.5t-46 130.5q0 30 -29 52t-68 22q-65 0 -132 -50.5t-67 -96.5q0 -55 164 -83q68 -12 100 -28.5t45 -49.5q12 -30 12 -60q0 -39 -32 -110
q-31 -50 -136 -106q-158 -82 -299 -82q-148 0 -241.5 90t-93.5 264q0 128 65 276l42 -19q-41 -87 -41 -195q0 -133 84.5 -210t211.5 -77q84 0 191 39q139 55 185 109q0 18 -132 43q-95 15 -144.5 48t-49.5 109q0 44 26.5 109t69.5 109q97 102 205 102zM1292 802
q-43 -61 -76 -92q-59 56 -117 104q37 52 79 95q53 -42 114 -107zM1238 589q-43 -61 -76 -92q-59 56 -117 104q37 52 79 95q53 -42 114 -107zM1431 602q-43 -61 -76 -92q-59 56 -117 104q37 52 79 95q53 -42 114 -107z" />
    <glyph glyph-name="uniFD1A" unicode="&#xfeb8;&#xfef2;" horiz-adv-x="1697" arabic-form="final" 
d="M800 393q56 0 79 -32t37 -99q15 -62 51.5 -98t79.5 -36q49 0 87 28q42 37 73 154l70 36l6 -4q-5 -21 -11.5 -50.5t-10 -44t-6 -31.5t-2.5 -30q0 -23 14.5 -40.5t41.5 -17.5q36 0 69 22q38 26 58 96q1 5 4.5 16.5t7.5 27.5t8 35l76 51l4 -3q-25 -85 -25 -137
q0 -108 164 -108h22v-128h-25q-164 0 -206 94h-6q-80 -94 -171 -94q-90 0 -109 83h-4q-35 -42 -68.5 -62.5t-84.5 -20.5q-67 0 -113 57.5t-46 130.5q0 30 -29 52t-68 22q-65 0 -132 -50.5t-67 -96.5q0 -55 164 -83q68 -12 100 -28.5t45 -49.5q12 -30 12 -60q0 -39 -32 -110
q-31 -50 -136 -106q-158 -82 -299 -82q-148 0 -241.5 90t-93.5 264q0 128 65 276l42 -19q-41 -87 -41 -195q0 -133 84.5 -210t211.5 -77q84 0 191 39q139 55 185 109q0 18 -132 43q-95 15 -144.5 48t-49.5 109q0 44 26.5 109t69.5 109q97 102 205 102zM674 -573
q-43 -61 -76 -92q-59 56 -117 104q37 52 79 95q53 -42 114 -107zM481 -586q-43 -61 -76 -92q-59 56 -117 104q37 52 79 95q53 -42 114 -107zM1292 802q-43 -61 -76 -92q-59 56 -117 104q37 52 79 95q53 -42 114 -107zM1238 589q-43 -61 -76 -92q-59 56 -117 104q37 52 79 95
q53 -42 114 -107zM1431 602q-43 -61 -76 -92q-59 56 -117 104q37 52 79 95q53 -42 114 -107z" />
    <glyph glyph-name="uniFD21" unicode="&#xfebc;&#xfef0;" horiz-adv-x="1762" arabic-form="final" 
d="M422 -404q-148 0 -241.5 90t-93.5 264q0 128 65 276l42 -19q-41 -87 -41 -195q0 -133 84.5 -210t211.5 -77q84 0 191 39q139 55 185 109q0 18 -132 43q-95 15 -144.5 48t-49.5 109q0 44 26.5 109t69.5 109q98 103 205 103q38 0 64 -20t37 -51q40 -100 127 -149
q36 55 59.5 88.5t62.5 79t80 81.5q118 103 224 103q103 0 164.5 -64.5t61.5 -156.5q0 -75 -51 -177h133v-128h-26q-151 0 -299 35q-112 -35 -233 -35q-100 0 -168 26l-55 -106l-14 3q5 70 16 130q-26 11 -59.5 49t-52.5 88q-29 72 -105 72q-65 0 -131.5 -50.5t-66.5 -96.5
q0 -55 164 -83q68 -12 100 -28.5t45 -49.5q12 -30 12 -60q0 -39 -32 -110q-31 -50 -136 -106q-158 -82 -299 -82zM1081 151q69 -23 181 -23q71 0 143.5 13.5t116.5 31.5q82 33 82 75q-10 64 -64.5 106.5t-122.5 42.5q-157 0 -336 -246z" />
    <glyph glyph-name="uniFD22" unicode="&#xfebc;&#xfef2;" horiz-adv-x="1762" arabic-form="final" 
d="M422 -404q-148 0 -241.5 90t-93.5 264q0 128 65 276l42 -19q-41 -87 -41 -195q0 -133 84.5 -210t211.5 -77q84 0 191 39q139 55 185 109q0 18 -132 43q-95 15 -144.5 48t-49.5 109q0 44 26.5 109t69.5 109q98 103 205 103q38 0 64 -20t37 -51q40 -100 127 -149
q36 55 59.5 88.5t62.5 79t80 81.5q118 103 224 103q103 0 164.5 -64.5t61.5 -156.5q0 -75 -51 -177h133v-128h-26q-151 0 -299 35q-112 -35 -233 -35q-100 0 -168 26l-55 -106l-14 3q5 70 16 130q-26 11 -59.5 49t-52.5 88q-29 72 -105 72q-65 0 -131.5 -50.5t-66.5 -96.5
q0 -55 164 -83q68 -12 100 -28.5t45 -49.5q12 -30 12 -60q0 -39 -32 -110q-31 -50 -136 -106q-158 -82 -299 -82zM1081 151q69 -23 181 -23q71 0 143.5 13.5t116.5 31.5q82 33 82 75q-10 64 -64.5 106.5t-122.5 42.5q-157 0 -336 -246zM674 -573q-43 -61 -76 -92
q-59 56 -117 104q37 52 79 95q53 -42 114 -107zM481 -586q-43 -61 -76 -92q-59 56 -117 104q37 52 79 95q53 -42 114 -107z" />
    <glyph glyph-name="uniFD23" unicode="&#xfec0;&#xfef0;" horiz-adv-x="1762" arabic-form="final" 
d="M422 -404q-148 0 -241.5 90t-93.5 264q0 128 65 276l42 -19q-41 -87 -41 -195q0 -133 84.5 -210t211.5 -77q84 0 191 39q139 55 185 109q0 18 -132 43q-95 15 -144.5 48t-49.5 109q0 44 26.5 109t69.5 109q98 103 205 103q38 0 64 -20t37 -51q40 -100 127 -149
q36 55 59.5 88.5t62.5 79t80 81.5q118 103 224 103q103 0 164.5 -64.5t61.5 -156.5q0 -75 -51 -177h133v-128h-26q-151 0 -299 35q-112 -35 -233 -35q-100 0 -168 26l-55 -106l-14 3q5 70 16 130q-26 11 -59.5 49t-52.5 88q-29 72 -105 72q-65 0 -131.5 -50.5t-66.5 -96.5
q0 -55 164 -83q68 -12 100 -28.5t45 -49.5q12 -30 12 -60q0 -39 -32 -110q-31 -50 -136 -106q-158 -82 -299 -82zM1081 151q69 -23 181 -23q71 0 143.5 13.5t116.5 31.5q82 33 82 75q-10 64 -64.5 106.5t-122.5 42.5q-157 0 -336 -246zM1145 769q49 65 81 102
q60 -44 120 -107q-35 -57 -83 -98q-27 26 -118 103z" />
    <glyph glyph-name="uniFD24" unicode="&#xfec0;&#xfef2;" horiz-adv-x="1762" arabic-form="final" 
d="M422 -404q-148 0 -241.5 90t-93.5 264q0 128 65 276l42 -19q-41 -87 -41 -195q0 -133 84.5 -210t211.5 -77q84 0 191 39q139 55 185 109q0 18 -132 43q-95 15 -144.5 48t-49.5 109q0 44 26.5 109t69.5 109q98 103 205 103q38 0 64 -20t37 -51q40 -100 127 -149
q36 55 59.5 88.5t62.5 79t80 81.5q118 103 224 103q103 0 164.5 -64.5t61.5 -156.5q0 -75 -51 -177h133v-128h-26q-151 0 -299 35q-112 -35 -233 -35q-100 0 -168 26l-55 -106l-14 3q5 70 16 130q-26 11 -59.5 49t-52.5 88q-29 72 -105 72q-65 0 -131.5 -50.5t-66.5 -96.5
q0 -55 164 -83q68 -12 100 -28.5t45 -49.5q12 -30 12 -60q0 -39 -32 -110q-31 -50 -136 -106q-158 -82 -299 -82zM1081 151q69 -23 181 -23q71 0 143.5 13.5t116.5 31.5q82 33 82 75q-10 64 -64.5 106.5t-122.5 42.5q-157 0 -336 -246zM674 -573q-43 -61 -76 -92
q-59 56 -117 104q37 52 79 95q53 -42 114 -107zM481 -586q-43 -61 -76 -92q-59 56 -117 104q37 52 79 95q53 -42 114 -107zM1155 769q49 65 81 102q60 -44 120 -107q-35 -57 -83 -98q-27 26 -118 103z" />
    <glyph glyph-name="uniFD29" unicode="&#xfeb8;&#xfeae;" horiz-adv-x="1601" arabic-form="final" 
d="M454 209q186 77 373 118l2 -7q-6 -24 -6 -60q0 -51 38.5 -91.5t88.5 -40.5t84 26q22 15 39.5 48t39.5 105l67 35l4 -4q-4 -23 -10 -51.5t-9 -43.5t-5.5 -30.5t-2.5 -26.5q0 -23 14.5 -40.5t41.5 -17.5q36 0 69 22q38 26 58 96q1 5 4.5 16.5t7.5 27.5t8 35l76 51l4 -3
q-25 -85 -25 -137q0 -108 164 -108h22v-128h-25q-164 0 -206 94h-6q-80 -94 -171 -94q-87 0 -108 83h-5q-61 -83 -150 -83q-72 0 -118 53t-45 138q-172 -54 -232 -84q12 -37 12 -74q0 -42 -4 -126q-4 -102 -77 -190q-117 -122 -221 -122t-242 97l15 28q57 -26 122 -26
q127 0 258 111q99 102 99 163q0 40 -73 120q9 56 30 121zM1202 802q-43 -61 -76 -92q-59 56 -117 104q37 52 79 95q53 -42 114 -107zM1148 589q-43 -61 -76 -92q-59 56 -117 104q37 52 79 95q53 -42 114 -107zM1341 602q-43 -61 -76 -92q-59 56 -117 104q37 52 79 95
q53 -42 114 -107z" />
    <glyph glyph-name="uniFD2A" unicode="&#xfeb4;&#xfeae;" horiz-adv-x="1601" arabic-form="final" 
d="M454 209q186 77 373 118l2 -7q-6 -24 -6 -60q0 -51 38.5 -91.5t88.5 -40.5t84 26q22 15 39.5 48t39.5 105l67 35l4 -4q-4 -23 -10 -51.5t-9 -43.5t-5.5 -30.5t-2.5 -26.5q0 -23 14.5 -40.5t41.5 -17.5q36 0 69 22q38 26 58 96q1 5 4.5 16.5t7.5 27.5t8 35l76 51l4 -3
q-25 -85 -25 -137q0 -108 164 -108h22v-128h-25q-164 0 -206 94h-6q-80 -94 -171 -94q-87 0 -108 83h-5q-61 -83 -150 -83q-72 0 -118 53t-45 138q-172 -54 -232 -84q12 -37 12 -74q0 -42 -4 -126q-4 -102 -77 -190q-117 -122 -221 -122t-242 97l15 28q57 -26 122 -26
q127 0 258 111q99 102 99 163q0 40 -73 120q9 56 30 121z" />
    <glyph glyph-name="uniFD2B" unicode="&#xfebc;&#xfeae;" horiz-adv-x="1689" arabic-form="final" 
d="M547 124q12 -38 12 -73q0 -56 -5 -138q-6 -96 -87 -193q-118 -122 -221 -122q-104 0 -242 97l15 28q57 -26 122 -26q127 0 258 111q108 111 108 181q0 39 -71 117q9 56 30 121q166 69 362 134q8 -64 35.5 -110.5t89.5 -76.5q108 165 204 249q118 103 224 103
q103 0 164.5 -64.5t61.5 -156.5q0 -75 -51 -177h133v-128h-26q-151 0 -299 35q-112 -35 -233 -35q-117 0 -187 33q-33 -46 -84 -136l-21 12q21 84 48 156q-85 63 -94 153q-154 -49 -246 -94zM1006 149q63 -21 183 -21q71 0 143.5 13.5t116.5 31.5q82 33 82 75
q-10 64 -64.5 106.5t-122.5 42.5q-157 0 -338 -248z" />
    <glyph glyph-name="uniFD2C" unicode="&#xfec0;&#xfeae;" horiz-adv-x="1689" arabic-form="final" 
d="M547 124q12 -38 12 -73q0 -56 -5 -138q-6 -96 -87 -193q-118 -122 -221 -122q-104 0 -242 97l15 28q57 -26 122 -26q127 0 258 111q108 111 108 181q0 39 -71 117q9 56 30 121q166 69 362 134q8 -64 35.5 -110.5t89.5 -76.5q108 165 204 249q118 103 224 103
q103 0 164.5 -64.5t61.5 -156.5q0 -75 -51 -177h133v-128h-26q-151 0 -299 35q-112 -35 -233 -35q-117 0 -187 33q-33 -46 -84 -136l-21 12q21 84 48 156q-85 63 -94 153q-154 -49 -246 -94zM1006 149q63 -21 183 -21q71 0 143.5 13.5t116.5 31.5q82 33 82 75
q-10 64 -64.5 106.5t-122.5 42.5q-157 0 -338 -248zM1085 769q49 65 81 102q60 -44 120 -107q-35 -57 -83 -98q-27 26 -118 103z" />
    <glyph glyph-name="uniFEF5" unicode="&#xfedf;&#xfe82;" horiz-adv-x="905" arabic-form="isolated" 
d="M464 1149l5 -5q-23 -64 -29 -75q-57 -48 -140 -48q-33 0 -97.5 8.5t-87.5 8.5q-15 0 -51 -68q-2 -3 -3 -5l-2 -4h-7l-34 61q0 43 21.5 77t69.5 34q29 0 71 -8t74.5 -15.5t75 -7t78.5 14.5q30 12 56 32zM755 1029l7 -5q-2 -14 -2 -21q0 -71 81 -203q-34 -32 -61 -49
q8 -195 8 -359q0 -94 -33 -195q-41 -117 -111 -169q-52 -38 -121 -61.5t-130 -23.5q-103 0 -247 46v11q299 40 448 130q-2 19 -20.5 54t-36.5 64t-56 86q-14 22 -218 320q-99 145 -99 186q0 29 46 96l5 1q41 -54 163 -175l-32 -57q30 -48 84 -131.5t91 -142t63 -104.5
q42 -75 43 -174l6 -1q80 57 80 182q0 136 -26 404q-1 18 -6.5 74.5t-5.5 81.5q0 44 21 71q16 23 59 64z" />
    <glyph glyph-name="uniFEF6" unicode="&#xfee0;&#xfe82;" horiz-adv-x="923" arabic-form="final" 
d="M464 1159l5 -5q-23 -64 -29 -75q-57 -48 -140 -48q-33 0 -97.5 8.5t-87.5 8.5q-15 0 -51 -68q-2 -3 -3 -5l-2 -4h-7l-34 61q0 43 21.5 77t69.5 34q29 0 71 -8t74.5 -15.5t75 -7t78.5 14.5q30 12 56 32zM750 1032l8 -3q10 -325 10 -586q0 -160 26 -223q16 -38 49 -65
t72 -27h8v-128h-19q-80 0 -143.5 71.5t-63.5 204.5l-7 1q-49 -180 -218 -258q-103 -40 -204 -40l-109 10l-4 7q225 85 381 187q-24 139 -288 489q-11 14 -30 39t-29.5 39t-22 32t-17 31t-5.5 23q0 26 27 92h5q55 -56 189 -142l-34 -59q94 -129 160 -242q79 -137 79 -214
q0 -19 -4 -63l3 -1q43 41 72 86q28 44 34 101.5t6 204.5q0 44 -13 348q47 58 82 85z" />
    <glyph glyph-name="uniFEF7" unicode="&#xfedf;&#xfe84;" horiz-adv-x="813" arabic-form="isolated" 
d="M331 1116v-3q-19 -39 -39 -68q-146 -23 -260 -75l-2 3l24 42q19 24 46 33v3q-78 23 -78 87q0 41 47 88q64 57 121 57q29 0 46 -14.5t17 -34.5q0 -27 -32 -65h-2q-18 35 -32 39q-11 3 -31 3q-25 0 -47.5 -11.5t-22.5 -23.5q0 -22 24.5 -37.5t55 -21t63.5 -5.5q34 0 102 4z
M663 1029l7 -5q-2 -14 -2 -21q0 -71 81 -203q-34 -32 -61 -49q8 -195 8 -359q0 -94 -33 -195q-41 -117 -111 -169q-52 -38 -121 -61.5t-130 -23.5q-103 0 -247 46v11q299 40 448 130q-2 19 -20.5 54t-36.5 64t-56 86q-14 22 -218 320q-99 145 -99 186q0 29 46 96l5 1
q41 -54 163 -175l-32 -57q30 -48 84 -131.5t91 -142t63 -104.5q42 -75 43 -174l6 -1q80 57 80 182q0 136 -26 404q-1 18 -6.5 74.5t-5.5 81.5q0 44 21 71q16 23 59 64z" />
    <glyph glyph-name="uniFEF8" unicode="&#xfee0;&#xfe84;" horiz-adv-x="855" arabic-form="final" 
d="M327 1119v-3q-19 -39 -39 -68q-146 -23 -260 -75l-2 3l24 42q19 24 46 33v3q-78 23 -78 87q0 41 47 88q64 57 121 57q29 0 46 -14.5t17 -34.5q0 -27 -32 -65h-2q-18 35 -32 39q-11 3 -31 3q-25 0 -47.5 -11.5t-22.5 -23.5q0 -22 24.5 -37.5t55 -21t63.5 -5.5q34 0 102 4z
M682 1032l8 -3q10 -325 10 -586q0 -160 26 -223q16 -38 49 -65t72 -27h8v-128h-19q-80 0 -143.5 71.5t-63.5 204.5l-7 1q-49 -180 -218 -258q-103 -40 -204 -40l-109 10l-4 7q225 85 381 187q-24 139 -288 489q-11 14 -30 39t-29.5 39t-22 32t-17 31t-5.5 23q0 26 27 92h5
q55 -56 189 -142l-34 -59q94 -129 160 -242q79 -137 79 -214q0 -19 -4 -63l3 -1q43 41 72 86q28 44 34 101.5t6 204.5q0 44 -13 348q47 58 82 85z" />
    <glyph glyph-name="uniFEF9" unicode="&#xfedf;&#xfe88;" horiz-adv-x="813" arabic-form="isolated" 
d="M392 -291v-3q-19 -39 -39 -68q-146 -23 -260 -75l-2 3l24 42q19 24 46 33v3q-78 23 -78 87q0 41 47 88q64 57 121 57q29 0 46 -14.5t17 -34.5q0 -27 -32 -65h-2q-18 35 -32 39q-11 3 -31 3q-25 0 -47.5 -11.5t-22.5 -23.5q0 -22 24.5 -37.5t55 -21t63.5 -5.5q34 0 102 4z
M663 1029l7 -5q-2 -14 -2 -21q0 -71 81 -203q-34 -32 -61 -49q8 -195 8 -359q0 -94 -33 -195q-41 -117 -111 -169q-52 -38 -121 -61.5t-130 -23.5q-103 0 -247 46v11q299 40 448 130q-2 19 -20.5 54t-36.5 64t-56 86q-14 22 -218 320q-99 145 -99 186q0 29 46 96l5 1
q41 -54 163 -175l-32 -57q30 -48 84 -131.5t91 -142t63 -104.5q42 -75 43 -174l6 -1q80 57 80 182q0 136 -26 404q-1 18 -6.5 74.5t-5.5 81.5q0 44 21 71q16 23 59 64z" />
    <glyph glyph-name="uniFEFA" unicode="&#xfee0;&#xfe88;" horiz-adv-x="849" arabic-form="final" 
d="M441 -246v-3q-19 -39 -39 -68q-146 -23 -260 -75l-2 3l24 42q19 24 46 33v3q-78 23 -78 87q0 41 47 88q64 57 121 57q29 0 46 -14.5t17 -34.5q0 -27 -32 -65h-2q-18 35 -32 39q-11 3 -31 3q-25 0 -47.5 -11.5t-22.5 -23.5q0 -22 24.5 -37.5t55 -21t63.5 -5.5q34 0 102 4z
M676 1032l8 -3q10 -325 10 -586q0 -160 26 -223q16 -38 49 -65t72 -27h8v-128h-19q-80 0 -143.5 71.5t-63.5 204.5l-7 1q-49 -180 -218 -258q-103 -40 -204 -40l-109 10l-4 7q225 85 381 187q-24 139 -288 489q-11 14 -30 39t-29.5 39t-22 32t-17 31t-5.5 23q0 26 27 92h5
q55 -56 189 -142l-34 -59q94 -129 160 -242q79 -137 79 -214q0 -19 -4 -63l3 -1q43 41 72 86q28 44 34 101.5t6 204.5q0 44 -13 348q47 58 82 85z" />
    <glyph glyph-name="uniFEFB" unicode="&#xfedf;&#xfe8e;" horiz-adv-x="813" arabic-form="isolated" 
d="M663 1029l7 -5q-2 -14 -2 -21q0 -71 81 -203q-34 -32 -61 -49q8 -195 8 -359q0 -94 -33 -195q-41 -117 -111 -169q-52 -38 -121 -61.5t-130 -23.5q-103 0 -247 46v11q299 40 448 130q-2 19 -20.5 54t-36.5 64t-56 86q-14 22 -218 320q-99 145 -99 186q0 29 46 96l5 1
q41 -54 163 -175l-32 -57q30 -48 84 -131.5t91 -142t63 -104.5q42 -75 43 -174l6 -1q80 57 80 182q0 136 -26 404q-1 18 -6.5 74.5t-5.5 81.5q0 44 21 71q16 23 59 64z" />
    <glyph glyph-name="uniFEFC" unicode="&#xfee0;&#xfe8e;" horiz-adv-x="849" arabic-form="final" 
d="M676 1032l8 -3q10 -325 10 -586q0 -160 26 -223q16 -38 49 -65t72 -27h8v-128h-19q-80 0 -143.5 71.5t-63.5 204.5l-7 1q-49 -180 -218 -258q-103 -40 -204 -40l-109 10l-4 7q225 85 381 187q-24 139 -288 489q-11 14 -30 39t-29.5 39t-22 32t-17 31t-5.5 23q0 26 27 92
h5q55 -56 189 -142l-34 -59q94 -129 160 -242q79 -137 79 -214q0 -19 -4 -63l3 -1q43 41 72 86q28 44 34 101.5t6 204.5q0 44 -13 348q47 58 82 85z" />
    <glyph glyph-name="uni06260645.init" unicode="&#xfe8b;&#xfee4;" horiz-adv-x="811" 
d="M0 128h9q73 0 129 18.5t115 69.5q25 165 133 265q106 95 212 95q56 0 94.5 -28t38.5 -72q0 -49 -20 -101l-7 -1q-39 75 -124 75q-66 0 -134 -39q-97 -65 -118 -150l3 -3q53 24 101 24q82 0 130 -53q48 -51 48 -121q0 -64 -24 -112q-52 -98 -137 -98q-83 0 -142 70
q-53 58 -54 128h-5q-92 -95 -238 -95h-10q-37 0 -53.5 20.5t-16.5 46.5q0 23 17 42t53 19zM325 148q13 -57 59 -96.5t99 -39.5q52 0 64 28q0 53 -42.5 90t-103.5 37q-42 0 -76 -19zM732 789v-3q-19 -39 -39 -68q-146 -23 -260 -75l-2 3l24 42q19 24 46 33v3q-78 23 -78 87
q0 41 47 88q64 57 121 57q29 0 46 -14.5t17 -34.5q0 -27 -32 -65h-2q-18 35 -32 39q-10 3 -31 3q-25 0 -47.5 -11.5t-22.5 -23.5q0 -22 24.5 -37.5t55 -21t63.5 -5.5q34 0 102 4z" />
    <glyph glyph-name="uni06260649" unicode="&#xfe8b;&#xfef0;" horiz-adv-x="999" 
d="M734 653h7q98 -193 98 -291q0 -80 -54 -169q85 -20 112 -51t27 -97q0 -56 -41 -135q-206 -202 -450 -202q-69 0 -132 26t-107 68q-104 110 -104 268q0 142 75 314l39 -15q-45 -126 -45 -210q0 -114 58 -197q93 -114 228 -114q164 0 288 75q98 59 127 99q0 27 -97 50.5
t-218 32.5l-7 9l48 104q139 21 180 73q-24 98 -106 251q37 60 74 111zM848 849v-3q-19 -39 -39 -68q-146 -23 -260 -75l-2 3l24 42q19 24 46 33v3q-78 23 -78 87q0 41 47 88q64 57 121 57q29 0 46 -14.5t17 -34.5q0 -27 -32 -65h-2q-18 35 -32 39q-11 3 -31 3
q-25 0 -47.5 -11.5t-22.5 -23.5q0 -22 24.5 -37.5t55 -21t63.5 -5.5q34 0 102 4z" />
    <glyph glyph-name="uni0626064A" unicode="&#xfe8b;&#xfef2;" horiz-adv-x="999" 
d="M734 653h7q98 -193 98 -291q0 -80 -54 -169q85 -20 112 -51t27 -97q0 -56 -41 -135q-206 -202 -450 -202q-69 0 -132 26t-107 68q-104 110 -104 268q0 142 75 314l39 -15q-45 -126 -45 -210q0 -114 58 -197q93 -114 228 -114q164 0 288 75q98 59 127 99q0 27 -97 50.5
t-218 32.5l-7 9l48 104q139 21 180 73q-24 98 -106 251q37 60 74 111zM848 849v-3q-19 -39 -39 -68q-146 -23 -260 -75l-2 3l24 42q19 24 46 33v3q-78 23 -78 87q0 41 47 88q64 57 121 57q29 0 46 -14.5t17 -34.5q0 -27 -32 -65h-2q-18 35 -32 39q-11 3 -31 3
q-25 0 -47.5 -11.5t-22.5 -23.5q0 -22 24.5 -37.5t55 -21t63.5 -5.5q34 0 102 4zM680 -493q-43 -61 -76 -92q-59 56 -117 104q37 52 79 95q53 -42 114 -107zM487 -506q-43 -61 -76 -92q-59 56 -117 104q37 52 79 95q53 -42 114 -107z" />
    <glyph glyph-name="uni06280645.init" unicode="&#xfe91;&#xfee4;" horiz-adv-x="810" 
d="M495 -331q49 65 81 102q60 -44 120 -107q-35 -57 -83 -98q-27 26 -118 103zM0 128h9q73 0 129 18.5t115 69.5q25 165 133 265q106 95 212 95q56 0 94.5 -28t38.5 -72q0 -49 -20 -101l-7 -1q-39 75 -124 75q-66 0 -134 -39q-97 -65 -118 -150l3 -3q53 24 101 24
q82 0 130 -53q48 -51 48 -121q0 -64 -24 -112q-52 -98 -137 -98q-83 0 -142 70q-53 58 -54 128h-5q-92 -95 -238 -95h-10q-37 0 -53.5 20.5t-16.5 46.5q0 23 17 42t53 19zM325 148q13 -57 59 -96.5t99 -39.5q52 0 64 28q0 53 -42.5 90t-103.5 37q-42 0 -76 -19z" />
    <glyph glyph-name="uni06280646.fina" unicode="&#xfe92;&#xfee6;" horiz-adv-x="1120" 
d="M310 640q49 65 81 102q60 -44 120 -107q-35 -57 -83 -98q-27 26 -118 103zM820 -301q49 65 81 102q60 -44 120 -107q-35 -57 -83 -98q-27 26 -118 103zM904 489h10q1 -6 5.5 -28t10.5 -55t13 -71q27 -144 84 -180q50 -27 79 -27h14v-128h-16q-88 0 -133.5 51t-76.5 174
l-26 103h-5q-50 -101 -141 -104q30 -75 30 -188q0 -90 -29 -162q-39 -59 -106 -107q-107 -68 -225 -68q-137 0 -217 87.5t-80 228.5q0 119 50 236l35 -13q-27 -91 -27 -163q0 -106 72 -173.5t167 -67.5q104 0 201 56q104 71 104 124q0 37 -22 100q-25 69 -126 170l36 130
l10 1q47 -44 74 -64q30 -21 81 -21q40 0 70 24q14 11 27 31.5t29 52.5t28 51z" />
    <glyph glyph-name="uni06280649" unicode="&#xfe91;&#xfef0;" horiz-adv-x="999" 
d="M734 653h7q98 -193 98 -291q0 -80 -54 -169q85 -20 112 -51t27 -97q0 -56 -41 -135q-206 -202 -450 -202q-69 0 -132 26t-107 68q-104 110 -104 268q0 142 75 314l39 -15q-45 -126 -45 -210q0 -114 58 -197q93 -114 228 -114q164 0 288 75q98 59 127 99q0 27 -97 50.5
t-218 32.5l-7 9l48 104q139 21 180 73q-24 98 -106 251q37 60 74 111zM681 -431q49 65 81 102q60 -44 120 -107q-35 -57 -83 -98q-27 26 -118 103z" />
    <glyph glyph-name="uni0628064A" unicode="&#xfe91;&#xfef2;" horiz-adv-x="1011" 
d="M734 653h7q98 -193 98 -291q0 -80 -54 -169q85 -20 112 -51t27 -97q0 -56 -41 -135q-206 -202 -450 -202q-69 0 -132 26t-107 68q-104 110 -104 268q0 142 75 314l39 -15q-45 -126 -45 -210q0 -114 58 -197q93 -114 228 -114q164 0 288 75q98 59 127 99q0 27 -97 50.5
t-218 32.5l-7 9l48 104q139 21 180 73q-24 98 -106 251q37 60 74 111zM630 -503q-43 -61 -76 -92q-59 56 -117 104q37 52 79 95q53 -42 114 -107zM437 -516q-43 -61 -76 -92q-59 56 -117 104q37 52 79 95q53 -42 114 -107zM751 -381q49 65 81 102q60 -44 120 -107
q-35 -57 -83 -98q-27 26 -118 103z" />
    <glyph glyph-name="uni062A0645.init" unicode="&#xfe97;&#xfee4;" horiz-adv-x="820" 
d="M741 772q-43 -61 -76 -92q-59 56 -117 104q37 52 79 95q53 -42 114 -107zM548 759q-43 -61 -76 -92q-59 56 -117 104q37 52 79 95q53 -42 114 -107zM0 128h9q73 0 129 18.5t115 69.5q25 165 133 265q106 95 212 95q56 0 94.5 -28t38.5 -72q0 -49 -20 -101l-7 -1
q-39 75 -124 75q-66 0 -134 -39q-97 -65 -118 -150l3 -3q53 24 101 24q82 0 130 -53q48 -51 48 -121q0 -64 -24 -112q-52 -98 -137 -98q-83 0 -142 70q-53 58 -54 128h-5q-92 -95 -238 -95h-10q-37 0 -53.5 20.5t-16.5 46.5q0 23 17 42t53 19zM325 148q13 -57 59 -96.5
t99 -39.5q52 0 64 28q0 53 -42.5 90t-103.5 37q-42 0 -76 -19z" />
    <glyph glyph-name="uni062A0646.fina" unicode="&#xfe98;&#xfee6;" horiz-adv-x="1120" 
d="M310 640q49 65 81 102q60 -44 120 -107q-35 -57 -83 -98q-27 26 -118 103zM1066 702q-43 -61 -76 -92q-59 56 -117 104q37 52 79 95q53 -42 114 -107zM873 689q-43 -61 -76 -92q-59 56 -117 104q37 52 79 95q53 -42 114 -107zM904 489h10q1 -6 5.5 -28t10.5 -55t13 -71
q27 -144 84 -180q50 -27 79 -27h14v-128h-16q-88 0 -133.5 51t-76.5 174l-26 103h-5q-50 -101 -141 -104q30 -75 30 -188q0 -90 -29 -162q-39 -59 -106 -107q-107 -68 -225 -68q-137 0 -217 87.5t-80 228.5q0 119 50 236l35 -13q-27 -91 -27 -163q0 -106 72 -173.5
t167 -67.5q104 0 201 56q104 71 104 124q0 37 -22 100q-25 69 -126 170l36 130l10 1q47 -44 74 -64q30 -21 81 -21q40 0 70 24q14 11 27 31.5t29 52.5t28 51z" />
    <glyph glyph-name="uni062A0649" unicode="&#xfe97;&#xfef0;" horiz-adv-x="1004" 
d="M734 653h7q98 -193 98 -291q0 -80 -54 -169q85 -20 112 -51t27 -97q0 -56 -41 -135q-206 -202 -450 -202q-69 0 -132 26t-107 68q-104 110 -104 268q0 142 75 314l39 -15q-45 -126 -45 -210q0 -114 58 -197q93 -114 228 -114q164 0 288 75q98 59 127 99q0 27 -97 50.5
t-218 32.5l-7 9l48 104q139 21 180 73q-24 98 -106 251q37 60 74 111zM867 842q-43 -61 -76 -92q-59 56 -117 104q37 52 79 95q53 -42 114 -107zM674 829q-43 -61 -76 -92q-59 56 -117 104q37 52 79 95q53 -42 114 -107z" />
    <glyph glyph-name="uni062A064A" unicode="&#xfe97;&#xfef2;" horiz-adv-x="1004" 
d="M734 653h7q98 -193 98 -291q0 -80 -54 -169q85 -20 112 -51t27 -97q0 -56 -41 -135q-206 -202 -450 -202q-69 0 -132 26t-107 68q-104 110 -104 268q0 142 75 314l39 -15q-45 -126 -45 -210q0 -114 58 -197q93 -114 228 -114q164 0 288 75q98 59 127 99q0 27 -97 50.5
t-218 32.5l-7 9l48 104q139 21 180 73q-24 98 -106 251q37 60 74 111zM680 -493q-43 -61 -76 -92q-59 56 -117 104q37 52 79 95q53 -42 114 -107zM487 -506q-43 -61 -76 -92q-59 56 -117 104q37 52 79 95q53 -42 114 -107zM867 842q-43 -61 -76 -92q-59 56 -117 104
q37 52 79 95q53 -42 114 -107zM674 829q-43 -61 -76 -92q-59 56 -117 104q37 52 79 95q53 -42 114 -107z" />
    <glyph glyph-name="uni062B0631.fina" unicode="&#xfe9c;&#xfeae;" horiz-adv-x="910" 
d="M658 679q-43 -61 -76 -92q-59 56 -117 104q37 52 79 95q53 -42 114 -107zM712 892q-43 -61 -76 -92q-59 56 -117 104q37 52 79 95q53 -42 114 -107zM851 692q-43 -61 -76 -92q-59 56 -117 104q37 52 79 95q53 -42 114 -107zM694 479h10q2 -9 5 -29t9.5 -55.5t12.5 -71.5
q25 -136 85 -173q41 -22 81 -22h13v-128h-18q-89 0 -134 47t-75 169l-25 102h-5q-24 -49 -62.5 -79.5t-85.5 -27.5q14 -60 14 -138q0 -24 -2 -52q-6 -58 -57 -134q-48 -72 -102 -112t-95 -40q-61 0 -121 19.5t-140 59.5l14 32q54 -25 94 -25q154 0 274 142q81 95 81 141
q-11 29 -33.5 61.5t-39 51.5t-52.5 57l33 128h9q46 -42 73 -63q32 -22 84 -22q38 0 71 27q14 11 27 31.5t29 52.5t28 51z" />
    <glyph glyph-name="uni062B0645.init" unicode="&#xfe9b;&#xfee4;" horiz-adv-x="820" 
d="M548 739q-43 -61 -76 -92q-59 56 -117 104q37 52 79 95q53 -42 114 -107zM602 952q-43 -61 -76 -92q-59 56 -117 104q37 52 79 95q53 -42 114 -107zM741 752q-43 -61 -76 -92q-59 56 -117 104q37 52 79 95q53 -42 114 -107zM0 128h9q73 0 129 18.5t115 69.5
q25 165 133 265q106 95 212 95q56 0 94.5 -28t38.5 -72q0 -49 -20 -101l-7 -1q-39 75 -124 75q-66 0 -134 -39q-97 -65 -118 -150l3 -3q53 24 101 24q82 0 130 -53q48 -51 48 -121q0 -64 -24 -112q-52 -98 -137 -98q-83 0 -142 70q-53 58 -54 128h-5q-92 -95 -238 -95h-10
q-37 0 -53.5 20.5t-16.5 46.5q0 23 17 42t53 19zM325 148q13 -57 59 -96.5t99 -39.5q52 0 64 28q0 53 -42.5 90t-103.5 37q-42 0 -76 -19z" />
    <glyph glyph-name="uni062B0646.fina" unicode="&#xfe9c;&#xfee6;" horiz-adv-x="1120" 
d="M310 640q49 65 81 102q60 -44 120 -107q-35 -57 -83 -98q-27 26 -118 103zM873 689q-43 -61 -76 -92q-59 56 -117 104q37 52 79 95q53 -42 114 -107zM927 902q-43 -61 -76 -92q-59 56 -117 104q37 52 79 95q53 -42 114 -107zM1066 702q-43 -61 -76 -92q-59 56 -117 104
q37 52 79 95q53 -42 114 -107zM904 489h10q1 -6 5.5 -28t10.5 -55t13 -71q27 -144 84 -180q50 -27 79 -27h14v-128h-16q-88 0 -133.5 51t-76.5 174l-26 103h-5q-50 -101 -141 -104q30 -75 30 -188q0 -90 -29 -162q-39 -59 -106 -107q-107 -68 -225 -68q-137 0 -217 87.5
t-80 228.5q0 119 50 236l35 -13q-27 -91 -27 -163q0 -106 72 -173.5t167 -67.5q104 0 201 56q104 71 104 124q0 37 -22 100q-25 69 -126 170l36 130l10 1q47 -44 74 -64q30 -21 81 -21q40 0 70 24q14 11 27 31.5t29 52.5t28 51z" />
    <glyph glyph-name="uni062B0649" unicode="&#xfe9b;&#xfef0;" horiz-adv-x="1004" 
d="M734 653h7q98 -193 98 -291q0 -80 -54 -169q85 -20 112 -51t27 -97q0 -56 -41 -135q-206 -202 -450 -202q-69 0 -132 26t-107 68q-104 110 -104 268q0 142 75 314l39 -15q-45 -126 -45 -210q0 -114 58 -197q93 -114 228 -114q164 0 288 75q98 59 127 99q0 27 -97 50.5
t-218 32.5l-7 9l48 104q139 21 180 73q-24 98 -106 251q37 60 74 111zM674 819q-43 -61 -76 -92q-59 56 -117 104q37 52 79 95q53 -42 114 -107zM728 1032q-43 -61 -76 -92q-59 56 -117 104q37 52 79 95q53 -42 114 -107zM867 832q-43 -61 -76 -92q-59 56 -117 104
q37 52 79 95q53 -42 114 -107z" />
    <glyph glyph-name="uni062B064A" unicode="&#xfe9b;&#xfef2;" horiz-adv-x="1004" 
d="M734 653h7q98 -193 98 -291q0 -80 -54 -169q85 -20 112 -51t27 -97q0 -56 -41 -135q-206 -202 -450 -202q-69 0 -132 26t-107 68q-104 110 -104 268q0 142 75 314l39 -15q-45 -126 -45 -210q0 -114 58 -197q93 -114 228 -114q164 0 288 75q98 59 127 99q0 27 -97 50.5
t-218 32.5l-7 9l48 104q139 21 180 73q-24 98 -106 251q37 60 74 111zM680 -493q-43 -61 -76 -92q-59 56 -117 104q37 52 79 95q53 -42 114 -107zM487 -506q-43 -61 -76 -92q-59 56 -117 104q37 52 79 95q53 -42 114 -107zM674 819q-43 -61 -76 -92q-59 56 -117 104
q37 52 79 95q53 -42 114 -107zM728 1032q-43 -61 -76 -92q-59 56 -117 104q37 52 79 95q53 -42 114 -107zM867 832q-43 -61 -76 -92q-59 56 -117 104q37 52 79 95q53 -42 114 -107z" />
    <glyph glyph-name="uni06430649" unicode="&#xfedb;&#xfef0;" horiz-adv-x="1116" 
d="M844 246q0 37 -69 133q-95 130 -285 288q-36 30 -36 92q0 25 21 64q17 30 77 61q138 70 538 200l7 -8q-26 -49 -75 -123q-79 -20 -161 -49q-149 -52 -329 -131v-3l164 -61l-23 -51q231 -231 231 -364q0 -58 -15.5 -103.5t-62.5 -84.5l-1 -4q53 -15 80.5 -46t27.5 -88
q0 -58 -39 -133q-109 -107 -231.5 -155.5t-234.5 -48.5q-70 0 -132 25t-106 66q-106 112 -106 268q0 143 76 317l38 -17q-46 -123 -46 -211q0 -113 59 -197q93 -113 228 -113q150 0 289 74q120 64 148 102q0 24 -111.5 48t-230.5 31l-8 10l46 104q118 17 195 48.5t77 59.5z
" />
    <glyph glyph-name="uni06430649.fina" unicode="&#xfedc;&#xfef0;" horiz-adv-x="1343" 
d="M898 263q0 6 -2 12.5t-6.5 15t-5.5 12.5q-50 107 -247 304q-48 50 -63 68q-7 40 -7 55q0 38 27 86q11 20 36 37q126 81 615 234l4 -6q-31 -61 -77 -123q-79 -20 -229 -74q-216 -81 -303 -127v-3q55 -35 154 -78l-30 -50q135 -122 369 -396q44 -52 89.5 -77t103.5 -25h17
v-128h-20q-84 0 -140.5 40t-118.5 122q-67 89 -103 128l-4 -1q-5 -77 -31 -122t-81 -74l1 -5q51 -20 69 -44.5t18 -77.5q0 -56 -39 -131q-109 -107 -231.5 -155.5t-234.5 -48.5q-70 0 -132 25t-106 66q-106 112 -106 268q0 143 76 317l38 -17q-46 -123 -46 -211
q0 -113 59 -197q93 -113 228 -113q150 0 289 74q122 65 148 100q0 28 -98.5 51.5t-213.5 27.5l-7 10l45 106q123 19 209 53.5t87 71.5z" />
    <glyph glyph-name="uni0643064A" unicode="&#xfedb;&#xfef2;" horiz-adv-x="1116" 
d="M844 246q0 37 -69 133q-95 130 -285 288q-36 30 -36 92q0 25 21 64q17 30 77 61q138 70 538 200l7 -8q-26 -49 -75 -123q-79 -20 -161 -49q-149 -52 -329 -131v-3l164 -61l-23 -51q231 -231 231 -364q0 -58 -15.5 -103.5t-62.5 -84.5l-1 -4q53 -15 80.5 -46t27.5 -88
q0 -58 -39 -133q-109 -107 -231.5 -155.5t-234.5 -48.5q-70 0 -132 25t-106 66q-106 112 -106 268q0 143 76 317l38 -17q-46 -123 -46 -211q0 -113 59 -197q93 -113 228 -113q150 0 289 74q120 64 148 102q0 24 -111.5 48t-230.5 31l-8 10l46 104q118 17 195 48.5t77 59.5z
M674 -553q-43 -61 -76 -92q-59 56 -117 104q37 52 79 95q53 -42 114 -107zM481 -566q-43 -61 -76 -92q-59 56 -117 104q37 52 79 95q53 -42 114 -107z" />
    <glyph glyph-name="uni0643064A.fina" unicode="&#xfedc;&#xfef2;" horiz-adv-x="1343" 
d="M898 263q0 6 -2 12.5t-6.5 15t-5.5 12.5q-50 107 -247 304q-48 50 -63 68q-7 40 -7 55q0 38 27 86q11 20 36 37q126 81 615 234l4 -6q-31 -61 -77 -123q-79 -20 -229 -74q-216 -81 -303 -127v-3q55 -35 154 -78l-30 -50q135 -122 369 -396q44 -52 89.5 -77t103.5 -25h17
v-128h-20q-84 0 -140.5 40t-118.5 122q-67 89 -103 128l-4 -1q-5 -77 -31 -122t-81 -74l1 -5q51 -20 69 -44.5t18 -77.5q0 -56 -39 -131q-109 -107 -231.5 -155.5t-234.5 -48.5q-70 0 -132 25t-106 66q-106 112 -106 268q0 143 76 317l38 -17q-46 -123 -46 -211
q0 -113 59 -197q93 -113 228 -113q150 0 289 74q122 65 148 100q0 28 -98.5 51.5t-213.5 27.5l-7 10l45 106q123 19 209 53.5t87 71.5zM674 -553q-43 -61 -76 -92q-59 56 -117 104q37 52 79 95q53 -42 114 -107zM481 -566q-43 -61 -76 -92q-59 56 -117 104q37 52 79 95
q53 -42 114 -107z" />
    <glyph glyph-name="uni06440671" unicode="&#xfedf;&#xfb51;" horiz-adv-x="892" 
d="M742 1029l7 -5q-2 -14 -2 -21q0 -71 81 -203q-34 -32 -61 -49q8 -195 8 -359q0 -94 -33 -195q-41 -117 -111 -169q-52 -38 -121 -61.5t-130 -23.5q-103 0 -247 46v11q299 40 448 130q-2 19 -20.5 54t-36.5 64t-56 86q-14 22 -218 320q-99 145 -99 186q0 29 46 96l5 1
q41 -54 163 -175l-32 -57q30 -48 84 -131.5t91 -142t63 -104.5q42 -75 43 -174l6 -1q80 57 80 182q0 136 -26 404q-1 18 -6.5 74.5t-5.5 81.5q0 44 21 71q16 23 59 64zM30 995l-6 3l5 73q32 63 59 63q15 0 39 -12q92 130 168 130q42 0 69 -30q28 -33 28 -90q0 -52 -37 -89
q-40 -38 -101 -38q-45 0 -83.5 11.5t-60 22.5t-23.5 11q-15 0 -57 -55zM158 1105q50 -24 105 -24q32 0 61 12.5t30 31.5q-7 25 -26.5 41.5t-43.5 17.5q-62 0 -126 -79z" />
    <glyph glyph-name="uni06440671.fina" unicode="&#xfee0;&#xfb51;" horiz-adv-x="918" 
d="M745 1032l8 -3q10 -325 10 -586q0 -160 26 -223q16 -38 49 -65t72 -27h8v-128h-19q-80 0 -143.5 71.5t-63.5 204.5l-7 1q-49 -180 -218 -258q-103 -40 -204 -40l-109 10l-4 7q225 85 381 187q-24 139 -288 489q-11 14 -30 39t-29.5 39t-22 32t-17 31t-5.5 23q0 26 27 92
h5q55 -56 189 -142l-34 -59q94 -129 160 -242q79 -137 79 -214q0 -19 -4 -63l3 -1q43 41 72 86q28 44 34 101.5t6 204.5q0 44 -13 348q47 58 82 85zM30 995l-6 3l5 73q32 63 59 63q15 0 39 -12q92 130 168 130q42 0 69 -30q28 -33 28 -90q0 -52 -37 -89q-40 -38 -101 -38
q-45 0 -83.5 11.5t-60 22.5t-23.5 11q-15 0 -57 -55zM158 1105q50 -24 105 -24q32 0 61 12.5t30 31.5q-7 25 -26.5 41.5t-43.5 17.5q-62 0 -126 -79z" />
    <glyph glyph-name="uni06440645" unicode="&#xfedf;&#xfee2;" horiz-adv-x="804" 
d="M331 246q-70 -25 -121 -68t-51 -80q0 -75 38 -200t76 -244.5t38 -181.5q0 -52 -23 -124h-17q0 50 -47.5 185.5t-95 276.5t-47.5 205q-1 75 35 154q71 144 211 192q-17 277 -17 430q0 19 -9 78.5t-9 83.5q0 52 27 82q20 24 56 52l10 -6q-2 -12 -2 -42q0 -50 86 -183
l-74 -48q0 -261 14 -429q45 13 105 13q95 0 155.5 -53t60.5 -144q0 -87 -53.5 -147t-121.5 -60q-45 0 -82.5 18t-61 45t-41 63.5t-26 67.5t-13.5 64zM419 268q10 -69 60 -115t111 -46q44 0 73 26q2 46 -28 80t-69 48t-79 14q-44 0 -68 -7z" />
    <glyph glyph-name="uni06450627.fina" unicode="&#xfee4;&#xfe8e;" horiz-adv-x="1059" 
d="M344 128q48 0 89 23q12 6 22 14t19.5 19.5t15.5 19t15.5 24.5t13.5 24t14.5 29t14.5 29q45 91 91 153h10q101 -133 190 -227q102 -108 208 -108h12v-128h-12q-63 0 -110 25t-93 79l-3 -1v-16q0 -96 -38.5 -151.5t-86.5 -55.5q-72 0 -133 63t-78 152h-5q-63 -95 -170 -95
q-92 0 -150 58q-43 44 -54.5 100.5t-11.5 178.5q0 234 -26 601q63 68 94 93l7 -4q16 -219 16 -724v-57q0 -80 75 -107q31 -11 64 -11zM623 327h-5q-49 -92 -49 -136q0 -63 45.5 -120.5t110.5 -57.5q20 0 37 21t17 52q0 41 -34 87q-21 30 -65 84t-57 70z" />
    <glyph glyph-name="uni06450622.fina" unicode="&#xfee4;&#xfe82;" horiz-adv-x="1131" 
d="M416 128q48 0 89 23q12 6 22 14t19.5 19.5t15.5 19t15.5 24.5t13.5 24t14.5 29t14.5 29q45 91 91 153h10q101 -133 190 -227q102 -108 208 -108h12v-128h-12q-63 0 -110 25t-93 79l-3 -1v-16q0 -96 -38.5 -151.5t-86.5 -55.5q-72 0 -133 63t-78 152h-5q-63 -95 -170 -95
q-92 0 -150 58q-43 44 -54.5 100.5t-11.5 178.5q0 234 -26 601q63 68 94 93l7 -4q16 -219 16 -724v-57q0 -80 75 -107q31 -11 64 -11zM695 327h-5q-49 -92 -49 -136q0 -63 45.5 -120.5t110.5 -57.5q20 0 37 21t17 52q0 41 -34 87q-21 30 -65 84t-57 70zM464 1219l5 -5
q-23 -64 -29 -75q-57 -48 -140 -48q-33 0 -97.5 8.5t-87.5 8.5q-15 0 -51 -68q-2 -3 -3 -5l-2 -4h-7l-34 61q0 43 21.5 77t69.5 34q34 0 106 -15t111 -15q46 0 82 14q30 12 56 32z" />
    <glyph glyph-name="uni06450623.fina" unicode="&#xfee4;&#xfe84;" horiz-adv-x="1103" 
d="M388 128q48 0 89 23q12 6 22 14t19.5 19.5t15.5 19t15.5 24.5t13.5 24t14.5 29t14.5 29q45 91 91 153h10q101 -133 190 -227q102 -108 208 -108h12v-128h-12q-63 0 -110 25t-93 79l-3 -1v-16q0 -96 -38.5 -151.5t-86.5 -55.5q-72 0 -133 63t-78 152h-5q-63 -95 -170 -95
q-92 0 -150 58q-43 44 -54.5 100.5t-11.5 178.5q0 234 -26 601q63 68 94 93l7 -4q16 -219 16 -724v-57q0 -80 75 -107q31 -11 64 -11zM667 327h-5q-49 -92 -49 -136q0 -63 45.5 -120.5t110.5 -57.5q20 0 37 21t17 52q0 41 -34 87q-21 30 -65 84t-57 70zM344 1169v-3
q-19 -39 -39 -68q-146 -23 -260 -75l-2 3l24 42q19 24 46 33v3q-78 23 -78 87q0 41 47 88q64 57 121 57q29 0 46 -14.5t17 -34.5q0 -27 -32 -65h-2q-18 35 -32 39q-11 3 -31 3q-25 0 -47.5 -11.5t-22.5 -23.5q0 -22 24.5 -37.5t55 -21t63.5 -5.5q34 0 102 4z" />
    <glyph glyph-name="uni06450625.fina" unicode="&#xfee4;&#xfe88;" horiz-adv-x="1059" 
d="M361 -221v-3q-19 -39 -39 -68q-146 -23 -260 -75l-2 3l24 42q19 24 46 33v3q-78 23 -78 87q0 41 47 88q64 57 121 57q29 0 46 -14.5t17 -34.5q0 -27 -32 -65h-2q-18 35 -32 39q-11 3 -31 3q-25 0 -47.5 -11.5t-22.5 -23.5q0 -22 24.5 -37.5t55 -21t63.5 -5.5q34 0 102 4z
M344 128q48 0 89 23q12 6 22 14t19.5 19.5t15.5 19t15.5 24.5t13.5 24t14.5 29t14.5 29q45 91 91 153h10q101 -133 190 -227q102 -108 208 -108h12v-128h-12q-63 0 -110 25t-93 79l-3 -1v-16q0 -96 -38.5 -151.5t-86.5 -55.5q-72 0 -133 63t-78 152h-5q-63 -95 -170 -95
q-92 0 -150 58q-43 44 -54.5 100.5t-11.5 178.5q0 234 -26 601q63 68 94 93l7 -4q16 -219 16 -724v-57q0 -80 75 -107q31 -11 64 -11zM623 327h-5q-49 -92 -49 -136q0 -63 45.5 -120.5t110.5 -57.5q20 0 37 21t17 52q0 41 -34 87q-21 30 -65 84t-57 70z" />
    <glyph glyph-name="uni06460631" unicode="&#xfee8;&#xfeae;" horiz-adv-x="910" 
d="M555 710q49 65 81 102q60 -44 120 -107q-35 -57 -83 -98q-27 26 -118 103zM694 479h10q2 -9 5 -29t9.5 -55.5t12.5 -71.5q25 -136 85 -173q41 -22 81 -22h13v-128h-18q-89 0 -134 47t-75 169l-25 102h-5q-24 -49 -62.5 -79.5t-85.5 -27.5q14 -60 14 -138q0 -24 -2 -52
q-6 -58 -57 -134q-48 -72 -102 -112t-95 -40q-61 0 -121 19.5t-140 59.5l14 32q54 -25 94 -25q154 0 274 142q81 95 81 141q-11 29 -33.5 61.5t-39 51.5t-52.5 57l33 128h9q46 -42 73 -63q32 -22 84 -22q38 0 71 27q14 11 27 31.5t29 52.5t28 51z" />
    <glyph glyph-name="uni06460645.init" unicode="&#xfee7;&#xfee4;" horiz-adv-x="810" 
d="M445 800q49 65 81 102q60 -44 120 -107q-35 -57 -83 -98q-27 26 -118 103zM0 128h9q73 0 129 18.5t115 69.5q25 165 133 265q106 95 212 95q56 0 94.5 -28t38.5 -72q0 -49 -20 -101l-7 -1q-39 75 -124 75q-66 0 -134 -39q-97 -65 -118 -150l3 -3q53 24 101 24
q82 0 130 -53q48 -51 48 -121q0 -64 -24 -112q-52 -98 -137 -98q-83 0 -142 70q-53 58 -54 128h-5q-92 -95 -238 -95h-10q-37 0 -53.5 20.5t-16.5 46.5q0 23 17 42t53 19zM325 148q13 -57 59 -96.5t99 -39.5q52 0 64 28q0 53 -42.5 90t-103.5 37q-42 0 -76 -19z" />
    <glyph glyph-name="uni06460649" unicode="&#xfee7;&#xfef0;" horiz-adv-x="999" 
d="M734 653h7q98 -193 98 -291q0 -80 -54 -169q85 -20 112 -51t27 -97q0 -56 -41 -135q-206 -202 -450 -202q-69 0 -132 26t-107 68q-104 110 -104 268q0 142 75 314l39 -15q-45 -126 -45 -210q0 -114 58 -197q93 -114 228 -114q164 0 288 75q98 59 127 99q0 27 -97 50.5
t-218 32.5l-7 9l48 104q139 21 180 73q-24 98 -106 251q37 60 74 111zM581 870q49 65 81 102q60 -44 120 -107q-35 -57 -83 -98q-27 26 -118 103z" />
    <glyph glyph-name="uni0646064A" unicode="&#xfee7;&#xfef2;" horiz-adv-x="999" 
d="M734 653h7q98 -193 98 -291q0 -80 -54 -169q85 -20 112 -51t27 -97q0 -56 -41 -135q-206 -202 -450 -202q-69 0 -132 26t-107 68q-104 110 -104 268q0 142 75 314l39 -15q-45 -126 -45 -210q0 -114 58 -197q93 -114 228 -114q164 0 288 75q98 59 127 99q0 27 -97 50.5
t-218 32.5l-7 9l48 104q139 21 180 73q-24 98 -106 251q37 60 74 111zM581 870q49 65 81 102q60 -44 120 -107q-35 -57 -83 -98q-27 26 -118 103zM680 -493q-43 -61 -76 -92q-59 56 -117 104q37 52 79 95q53 -42 114 -107zM487 -506q-43 -61 -76 -92q-59 56 -117 104
q37 52 79 95q53 -42 114 -107z" />
    <glyph glyph-name="uni064A0631.fina" unicode="&#xfef4;&#xfeae;" horiz-adv-x="910" 
d="M694 479h10q2 -9 5 -29t9.5 -55.5t12.5 -71.5q25 -136 85 -173q41 -22 81 -22h13v-128h-18q-89 0 -134 47t-75 169l-25 102h-5q-24 -49 -62.5 -79.5t-85.5 -27.5q14 -60 14 -138q0 -24 -2 -52q-6 -58 -57 -134q-48 -72 -102 -112t-95 -40q-61 0 -121 19.5t-140 59.5
l14 32q54 -25 94 -25q154 0 274 142q81 95 81 141q-11 29 -33.5 61.5t-39 51.5t-52.5 57l33 128h9q46 -42 73 -63q32 -22 84 -22q38 0 71 27q14 11 27 31.5t29 52.5t28 51zM854 -324q-43 -61 -76 -92q-59 56 -117 104q37 52 79 95q53 -42 114 -107zM661 -337
q-43 -61 -76 -92q-59 56 -117 104q37 52 79 95q53 -42 114 -107z" />
    <glyph glyph-name="uni064A0645.init" unicode="&#xfef3;&#xfee4;" horiz-adv-x="819" 
d="M541 -357q-43 -61 -76 -92q-59 56 -117 104q37 52 79 95q53 -42 114 -107zM734 -344q-43 -61 -76 -92q-59 56 -117 104q37 52 79 95q53 -42 114 -107zM0 128h9q73 0 129 18.5t115 69.5q25 165 133 265q106 95 212 95q56 0 94.5 -28t38.5 -72q0 -49 -20 -101l-7 -1
q-39 75 -124 75q-66 0 -134 -39q-97 -65 -118 -150l3 -3q53 24 101 24q82 0 130 -53q48 -51 48 -121q0 -64 -24 -112q-52 -98 -137 -98q-83 0 -142 70q-53 58 -54 128h-5q-92 -95 -238 -95h-10q-37 0 -53.5 20.5t-16.5 46.5q0 23 17 42t53 19zM325 148q13 -57 59 -96.5
t99 -39.5q52 0 64 28q0 53 -42.5 90t-103.5 37q-42 0 -76 -19z" />
    <glyph glyph-name="uni064A0646.fina" unicode="&#xfef4;&#xfee6;" horiz-adv-x="1120" 
d="M904 489h10q1 -6 5.5 -28t10.5 -55t13 -71q27 -144 84 -180q50 -27 79 -27h14v-128h-16q-88 0 -133.5 51t-76.5 174l-26 103h-5q-50 -101 -141 -104q30 -75 30 -188q0 -90 -29 -162q-39 -59 -106 -107q-107 -68 -225 -68q-137 0 -217 87.5t-80 228.5q0 119 50 236l35 -13
q-27 -91 -27 -163q0 -106 72 -173.5t167 -67.5q104 0 201 56q104 71 104 124q0 37 -22 100q-25 69 -126 170l36 130l10 1q47 -44 74 -64q30 -21 81 -21q40 0 70 24q14 11 27 31.5t29 52.5t28 51zM1074 -334q-43 -61 -76 -92q-59 56 -117 104q37 52 79 95q53 -42 114 -107z
M881 -347q-43 -61 -76 -92q-59 56 -117 104q37 52 79 95q53 -42 114 -107zM309 640q49 65 81 102q60 -44 120 -107q-35 -57 -83 -98q-27 26 -118 103z" />
    <glyph glyph-name="T_h" unicode="Th" horiz-adv-x="1624" 
d="M1596 0h-323v41q64 5 79.5 23.5t15.5 88.5v237q0 90 -35.5 134t-107.5 43q-40 0 -80 -19t-69 -54v-341q0 -70 15.5 -87.5t81.5 -24.5v-41h-330v41q72 7 88.5 24.5t16.5 90.5v730q-104 10 -300 10h-97v-708q0 -34 1.5 -54t7.5 -37.5t14 -25.5t27 -14.5t40 -9.5t58 -5v-42
h-430v42q53 4 78 8.5t41.5 21.5t20 41t3.5 75v708h-87q-100 0 -135.5 -10t-54.5 -38q-26 -40 -51 -131h-43q13 175 17 271h28q16 -24 33 -30.5t53 -6.5h632q87 0 115.5 8t28.5 30v19q46 6 128 35v-494q103 105 209 106q99 2 155.5 -60t56.5 -193v-248q0 -72 16 -90t83 -23
v-41z" />
    <glyph glyph-name="f_b" unicode="fb" horiz-adv-x="1215" 
d="M683 591l111 46q46 18 71 18q122 0 209.5 -89t87.5 -216q0 -157 -112 -262t-268 -105q-112 0 -228 52v867q-25 28 -64.5 47.5t-80.5 19.5q-58 0 -94 -53q-38 -58 -37 -217l2 -61h169q7 -12 2 -33t-20 -28h-151v-408q0 -79 19.5 -100t105.5 -28v-41h-357v41q66 7 84 26
t18 89v421h-106l-6 17l42 44h70v32q0 68 16 119q36 105 117 172q84 69 176 79q68 -2 115 -35q72 22 102 35l7 -9v-440zM683 548v-376q0 -28 7 -51q11 -30 45.5 -56.5t83.5 -26.5q91 -2 146 73t55 201q0 120 -66 191t-160 71q-69 0 -111 -26z" />
    <glyph glyph-name="f_f_b" unicode="ffb" horiz-adv-x="1618" 
d="M1088 1033v-440q51 19 111 45q37 17 70 17q122 0 209.5 -89t87.5 -216q0 -157 -113.5 -262t-269.5 -105q-108 0 -226 52v865q-25 32 -62 53t-78 21q-57 0 -93 -51q-38 -53 -41 -225v-60h169q7 -11 2 -32t-18 -29h-153v-424q0 -71 18.5 -88.5t96.5 -25.5v-39h-333v39
q59 9 74 26.5t15 87.5v424h-276v-424q0 -70 16.5 -88t82.5 -26v-39h-329v41q68 7 85 25t17 87v424h-106l-5 16l41 45h70v17q0 56 20 111q36 98 124 163q88 66 190 76q115 -4 171 -70q96 95 209 105q73 -2 116 -35q41 9 101 35zM554 638v26q0 105 43 188q-23 36 -65 63
t-96 27q-78 0 -117 -71q-39 -66 -39 -197v-36h274zM1088 548v-375q0 -31 9 -51q9 -28 44 -55t84 -28q85 -1 142.5 72.5t57.5 200.5q0 122 -65 191t-161 69q-66 0 -111 -24z" />
    <glyph glyph-name="f_f" unicode="ff" horiz-adv-x="852" 
d="M146 638v20q0 67 22 117q35 94 115 156q90 68 187 78q117 -3 180 -74q91 93 199 106q80 -3 125 -53q20 -23 8 -50q-9 -20 -34 -39q-26 -21 -46 1q-64 64 -123 64q-47 0 -74 -45q-29 -53 -28 -226l2 -55h177q7 -9 3.5 -31t-16.5 -30h-166v-426q0 -70 19.5 -87.5
t103.5 -25.5v-38h-341v38q60 8 75 26t15 89v424h-274v-426q0 -69 16.5 -87t82.5 -26v-38h-329v39q68 7 84.5 25t16.5 87v426h-107l-4 17l41 44h70zM549 638v31q0 63 12 106q8 29 27 71q-25 41 -68.5 71t-97.5 30q-69 0 -106 -66q-41 -73 -41 -204v-39h274z" />
    <glyph glyph-name="f_h" unicode="fh" horiz-adv-x="1231" 
d="M1203 0h-323v41q64 7 80 25t16 87v237q0 177 -144 177q-40 0 -80.5 -19t-68.5 -54v-341q0 -68 16 -86.5t79 -25.5v-41h-319v41q63 7 79 25t16 87v749q-25 29 -65 49.5t-80 20.5q-58 0 -96 -54q-33 -50 -33 -222v-58h167q7 -12 2 -33t-18 -30h-151v-409q0 -57 7 -79.5
t24 -31.5t63 -14v-41h-324v41q67 8 83.5 25.5t16.5 86.5v422h-103l-6 16l41 47h68v25q0 72 16 125q35 103 115 170q90 72 173 82q77 -1 118 -35q51 11 104 35l7 -7v-482q45 45 100.5 74t109.5 30q99 2 155 -60t56 -193v-248q0 -71 16 -88.5t83 -24.5v-41z" />
    <glyph glyph-name="f_f_h" unicode="ffh" horiz-adv-x="1634" 
d="M1607 0h-324v41q65 7 80.5 24t15.5 86v239q0 180 -144 180q-90 -4 -148 -75v-344q0 -68 16 -85.5t80 -24.5v-41h-318v41q61 7 77 25t16 87v749q-63 72 -141 72q-66 0 -96 -55q-38 -55 -38 -221v-60h169q8 -11 3 -32.5t-19 -28.5h-153v-426q0 -67 17.5 -85t87.5 -25v-41
h-323v41q58 7 73.5 25.5t15.5 86.5v424h-274v-424q0 -68 16 -86t81 -26v-41h-325v41q64 7 81 26t17 86v424h-105l-4 16l41 45h68v17q0 51 22 111q36 98 122 163q88 68 194 76q111 -4 169 -70q91 91 202 105q71 0 117 -35q54 11 103 35l8 -7v-482q45 45 100.5 74t108.5 30
q99 2 156 -61t57 -193v-251q0 -68 16.5 -86t81.5 -23v-41zM554 638v28q0 106 43 188q-22 35 -63.5 61.5t-96.5 26.5q-79 0 -118 -74q-39 -69 -39 -194v-36h274z" />
    <glyph glyph-name="f_f_i" unicode="ffi" horiz-adv-x="1209" 
d="M1183 0h-322v39q61 7 76.5 24t15.5 83v351q0 54 -12 67t-66 13h-196v-431q0 -66 16 -83t81 -24v-39h-319v39q63 7 77.5 23.5t14.5 84.5v430h-274v-426q0 -70 15.5 -87.5t82.5 -25.5v-38h-325v39q67 7 82.5 24t15.5 88v426h-105l-5 17l41 44h69v31q0 47 17 106
q36 95 128 165q91 65 187 74q65 -2 111 -24.5t68 -54.5q53 50 113 77t113 29q108 -1 164 -71q24 -30 10 -57q-15 -26 -36 -39q-28 -22 -51 1q-1 1 -11.5 13.5t-14 16.5t-14.5 15.5t-18 16t-19.5 13t-23 12.5t-24.5 7t-28 3q-60 0 -97 -59q-41 -59 -41 -212v-63h124
q187 0 278 19v-511q0 -66 16 -82.5t86 -24.5v-39zM549 638v41q0 53 15 103q12 41 27 69q-24 40 -67.5 69.5t-98.5 29.5q-73 0 -110 -67q-40 -72 -40 -203v-42h274z" />
    <glyph glyph-name="f_j" unicode="fj" horiz-adv-x="791" 
d="M280 638h123q189 0 280 19v-494q0 -141 -35 -236q-36 -96 -87 -170t-93 -115q-22 -19 -43 -19q-17 0 -36 19t-19 45q0 25 31 35q84 21 104 49q28 33 38 112q11 96 11 293v319q0 54 -12.5 68t-66.5 14h-195v-431q0 -66 17 -83t88 -24v-39h-340v39q73 8 89.5 24.5
t16.5 82.5v431h-107l-6 17l42 44h71v36q0 64 21 120q37 102 121 167q93 72 189 79q61 -2 102 -23.5t60 -46.5q21 -33 9 -60q-13 -21 -35 -36q-31 -16 -46 1q-76 92 -158 92q-60 0 -92 -58q-42 -68 -42 -219v-52z" />
    <glyph glyph-name="f_f_j" unicode="ffj" horiz-adv-x="1194" 
d="M682 638h125q185 0 278 19l2 -492q0 -145 -35 -236q-35 -97 -89.5 -177t-91.5 -112q-23 -17 -41 -17q-17 0 -35.5 20.5t-18.5 46.5t31 35q81 19 103 49q25 33 34 108q13 101 13 287l-1 326q0 55 -11 68.5t-65 13.5h-198v-431q0 -66 16.5 -82.5t90.5 -24.5v-39h-330v39
q64 7 79.5 24t15.5 84v430h-274v-426q0 -70 15 -87.5t82 -25.5v-38h-326v39q66 7 82.5 25t16.5 87v426h-106l-5 17l41 44h70v31q0 48 19 103q35 99 124 165q90 65 189 75q65 -2 111 -25t67 -55q53 50 113 78t111 31q104 -2 165 -71q21 -30 8 -57q-12 -24 -34 -40
q-30 -20 -51 2q-1 1 -16 17.5t-21 22t-22 19t-28.5 19.5t-31 11.5t-37.5 5.5q-57 0 -94 -58q-40 -61 -40 -211v-63zM554 638v41q0 61 14 106q11 34 28 63q-24 40 -69 70t-99 30q-74 0 -109 -67q-39 -67 -39 -201v-42h274z" />
    <glyph glyph-name="f_k" unicode="fk" horiz-adv-x="1175" 
d="M1202 0l-209 -3q-29 31 -65.5 72.5t-57 66t-67 81t-56.5 68.5q-23 30 -41 30q-11 1 -24 -2v-157q0 -72 18 -90t89 -25v-41h-336v41q68 7 84.5 25t16.5 90v749q-60 65 -142 65q-66 0 -97 -55q-38 -66 -37 -219l2 -58h167q7 -9 2.5 -32t-16.5 -31h-153v-406q0 -57 7 -80.5
t25 -33t65 -14.5v-41h-329v41q68 8 85 26.5t17 88.5v419h-106l-5 16l40 47h71v25q0 69 16 125q33 100 118 170q89 72 170 82q77 -2 117 -33q56 10 103 33l8 -7v-682q54 12 93 51q55 53 105 128q24 33 17 46t-58 18v40l309 13v-40q-71 -10 -108.5 -26.5t-82.5 -54.5
q-31 -29 -128 -139q26 -37 110.5 -134t122.5 -134q42 -41 71 -58.5t69 -19.5v-41z" />
    <glyph glyph-name="f_f_k" unicode="ffk" horiz-adv-x="1579" 
d="M1605 0l-207 -3q-37 39 -79.5 88t-92.5 109.5t-75 90.5t-41 30q-11 1 -25 -2v-159q0 -70 18.5 -88t90.5 -25v-41h-335v41q66 7 82 24.5t16 88.5v746q-62 73 -140 73q-62 0 -95 -52q-39 -59 -39 -223v-60h169q7 -11 2 -32.5t-18 -28.5h-153v-428q0 -67 17 -83.5t87 -24.5
v-41h-325v41q61 8 76.5 25t15.5 83v428h-276v-426q0 -67 16.5 -84.5t82.5 -25.5v-41h-329v42q68 7 85 24.5t17 84.5v426h-106l-6 14l42 47h70v16q0 49 22 115q37 95 121 159q89 69 196 77q114 -4 168 -70q91 91 205 105q71 -2 112 -33q58 9 105 33l6 -7v-682q54 12 93 51
q23 21 54.5 59.5t49.5 65.5q22 33 13.5 47t-55.5 19v41l311 13v-40q-68 -9 -107.5 -27.5t-83.5 -56.5q-45 -40 -126 -136q25 -37 108.5 -132.5t122.5 -133.5q44 -42 72.5 -59.5t67.5 -20.5v-41zM554 638v28q0 103 43 188q-23 35 -65.5 61.5t-95.5 26.5q-74 0 -118 -74
q-38 -60 -38 -194v-36h274z" />
    <glyph glyph-name="f_f_l" unicode="ffl" horiz-adv-x="1213" 
d="M1190 0h-323v39q60 7 75 24t15 83v759q-18 30 -53.5 50.5t-76.5 20.5q-62 0 -100 -48q-44 -55 -44 -216v-74h173q7 -9 2 -31.5t-18 -29.5h-155l-2 -430q0 -67 16 -84t82 -24v-39h-321v39q63 7 78.5 24.5t15.5 83.5v430h-274v-426q0 -69 15.5 -86.5t80.5 -25.5v-39h-325
v39q66 7 82.5 25t16.5 87v426h-103l-6 17l41 44h68v29q0 57 20 106q35 92 121 159q91 70 196 77q115 -3 176 -72q97 97 208 103q76 1 136 -36q22 9 65 35l13 -9v-884q0 -66 16.5 -83t88.5 -24v-39zM554 638v31q0 68 16 120q3 12 27 66q-22 38 -65.5 63.5t-98.5 25.5
q-77 0 -117 -69q-36 -68 -36 -198v-39h274z" />
    <glyph glyph-name="f_t" unicode="ft" horiz-adv-x="881" 
d="M875 52l-104 -51q-36 -18 -63 -18q-154 0 -154 174v420h-274v-424q0 -70 16.5 -87.5t90.5 -24.5v-41h-342v41q71 8 88 25.5t17 84.5v426h-106l-8 17l41 44h73v36q0 62 16 115q31 103 119 174q85 67 167 77q72 -1 116 -45q24 -28 9 -57q-12 -24 -37 -39q-19 -13 -37 4
q-21 23 -55.5 40t-62.5 17q-49 0 -78 -44q-33 -50 -29 -237l2 -41h274v98l109 102l20 -6v-194h166q11 -11 8 -32t-18 -29h-156v-367q0 -79 26 -110.5t62 -31.5q37 0 90 25z" />
    <glyph glyph-name="f_f_t" unicode="fft" horiz-adv-x="1289" 
d="M1279 52l-106 -52q-37 -17 -62 -17q-153 0 -153 174v421h-275v-429q0 -69 18 -85.5t94 -24.5v-39h-330v39q59 8 74 25.5t15 85.5v428h-274v-429q0 -68 16 -85t83 -25v-39h-332v41q69 7 86 24t17 84v429h-106l-6 16l41 44h71v17q0 58 20 110q36 95 123 163q90 69 195 77
q112 -4 169 -71q91 92 198 106q74 -1 118 -45q24 -28 9 -55t-38 -43q-18 -10 -35 6q-60 60 -121 60q-47 0 -76 -47q-30 -53 -29 -230v-48h275v95l110 103l19 -4v-194h167q11 -11 8 -31t-18 -29h-157v-368q0 -79 25.5 -110.5t61.5 -31.5q40 0 90 25zM554 638v29q0 106 42 185
q-23 35 -65.5 62t-94.5 27q-72 0 -117 -66q-41 -66 -41 -201v-36h276z" />
    <glyph glyph-name="uniFEEA.UYG" unicode="&#x647;" horiz-adv-x="764" arabic-form="final" 
d="M61 -66l-16 10q31 60 77 120q19 25 42.5 34.5t78.5 17.5q41 181 54 225q41 148 114 257l9 3q7 -16 37 -60q65 -92 98 -157.5t33 -123.5q0 -72 -19 -132h195v-128h-26q-52 0 -84 10l-5 -2q41 -67 41 -135q0 -69 -32 -120q-23 -39 -64.5 -66.5t-85.5 -27.5q-81 0 -142 40
q-62 39 -99 109.5t-37 147.5v40q-74 -9 -110 -23.5t-59 -38.5zM289 3q4 -72 63 -139q40 -46 91.5 -73t99.5 -27q28 0 43 13.5t15 35.5q0 65 -39 120q-55 78 -160 78q-52 0 -113 -8zM299 121q120 11 157 21q66 18 66 51q0 43 -31.5 99t-92.5 142h-5q-47 -137 -94 -313z" />
    <glyph glyph-name="uni0672.fina" unicode="&#x672;" horiz-adv-x="507" 
d="M507 128v-128h-11q-114 0 -171 57q-42 43 -52 98t-10 182q0 234 -26 601q63 68 94 93l7 -4q16 -219 16 -724v-57q0 -80 75 -107q31 -11 64 -11h14zM381 1236l-9 1q-14 44 -53 44q-26 0 -51 -11.5t-25 -24.5q0 -27 32 -44.5t68 -17.5q42 0 138 29l2 -5q-24 -41 -55 -85
q-116 -25 -182 -73q-28 -21 -45 -23q-6 -1 -13 -1q-21 0 -53 19.5t-48 19.5q-24 0 -49 -30l-20 23q58 83 110 83q19 0 50.5 -18.5t42.5 -18.5q21 0 36 13v4q-76 32 -76 88q0 37 47 84q59 57 118 57q26 0 45 -13.5t19 -39.5q0 -21 -29 -60z" />
    <glyph glyph-name="uni0673.fina" unicode="&#x673;" horiz-adv-x="462" 
d="M462 128v-128h-11q-114 0 -171 57q-42 43 -52 98t-10 182q0 234 -26 601q63 68 94 93l7 -4q16 -219 16 -724v-57q0 -80 75 -107q31 -11 64 -11h14zM366 -167l-9 1q-14 44 -53 44q-26 0 -51 -11.5t-25 -24.5q0 -27 32 -44.5t68 -17.5q42 0 138 29l2 -5q-24 -41 -55 -85
q-116 -25 -182 -73q-28 -21 -45 -23q-6 -1 -13 -1q-21 0 -53 19.5t-48 19.5q-24 0 -49 -30l-20 23q58 83 110 83q19 0 50.5 -18.5t42.5 -18.5q21 0 36 13v4q-76 32 -76 88q0 37 47 84q59 57 118 57q26 0 45 -13.5t19 -39.5q0 -21 -29 -60z" />
    <glyph glyph-name="uni0675.fina" unicode="&#x675;" horiz-adv-x="568" 
d="M561 1169v-3q-19 -39 -39 -68q-146 -23 -260 -75l-2 3l24 42q19 24 46 33v3q-78 23 -78 87q0 41 47 88q64 57 121 57q29 0 46 -14.5t17 -34.5q0 -27 -32 -65h-2q-18 35 -32 39q-11 3 -31 3q-25 0 -47.5 -11.5t-22.5 -23.5q0 -22 24.5 -37.5t55 -21t63.5 -5.5q34 0 102 4z
M568 128v-128h-221q-114 0 -171 57q-42 43 -52 98t-10 182q0 234 -26 601q63 68 94 93l7 -4q16 -219 16 -724v-57q0 -80 75 -107q31 -11 64 -11h224z" />
    <glyph glyph-name="uni0676.fina" unicode="&#x676;" horiz-adv-x="827" 
d="M601 128h226v-128h-220q-8 -99 -79 -206q-56 -83 -124 -126.5t-114 -43.5q-124 0 -288 101l17 33q67 -36 147 -36q142 0 278 138q78 80 94 140h-51q-306 0 -306 205q0 89 51 161q66 96 154 96q71 0 133 -92t82 -242zM533 128q-17 89 -70 146q-50 56 -106 56
q-41 0 -77 -28.5t-36 -59.5q0 -67 109 -98q60 -16 180 -16zM822 719v-3q-19 -39 -39 -68q-146 -23 -260 -75l-2 3l24 42q19 24 46 33v3q-78 23 -78 87q0 41 47 88q64 57 121 57q29 0 46 -14.5t17 -34.5q0 -27 -32 -65h-2q-18 35 -32 39q-11 3 -31 3q-25 0 -47.5 -11.5
t-22.5 -23.5q0 -22 24.5 -37.5t55 -21t63.5 -5.5q34 0 102 4z" />
    <glyph glyph-name="uni0677.fina" unicode="&#x677;" horiz-adv-x="865" 
d="M639 128h226v-128h-220q-8 -99 -79 -206q-56 -83 -124 -126.5t-114 -43.5q-124 0 -288 101l17 33q67 -36 147 -36q142 0 278 138q78 80 94 140h-51q-306 0 -306 205q0 89 51 161q66 96 154 96q71 0 133 -92t82 -242zM571 128q-17 89 -70 146q-50 56 -106 56
q-41 0 -77 -28.5t-36 -59.5q0 -67 109 -98q60 -16 180 -16zM860 719v-3q-19 -39 -39 -68q-146 -23 -260 -75l-2 3l24 42q19 24 46 33v3q-78 23 -78 87q0 41 47 88q64 57 121 57q29 0 46 -14.5t17 -34.5q0 -27 -32 -65h-2q-18 35 -32 39q-10 3 -31 3q-25 0 -47.5 -11.5
t-22.5 -23.5q0 -22 24.5 -37.5t55 -21t63.5 -5.5q34 0 102 4zM432 733l-47 -65q-8 6 -24 11q-59 -75 -209 -130q-20 0 -57 5t-42 13l-2 5q64 25 95 38t79 36.5t76 44.5q-61 11 -91 35t-30 67q0 56 43 96.5t93 40.5q34 0 60 -34.5t26 -107.5q0 -22 -6 -42q22 -3 36 -13z
M227 827q0 -50 125 -75q3 9 3 18q-1 35 -22 66.5t-48 31.5q-22 0 -40 -13t-18 -28z" />
    <glyph glyph-name="uni0678.init" unicode="&#x678;" horiz-adv-x="632" 
d="M246 551h5q100 -176 100 -305q0 -93 -70 -186q-34 -34 -93.5 -47t-175.5 -13h-12q-37 0 -53.5 20.5t-16.5 46.5q0 23 17 42t53 19h17q145 0 197 19q57 21 57 44q0 51 -100 247q37 66 75 113zM602 769v-3q-19 -39 -39 -68q-146 -23 -260 -75l-2 3l24 42q19 24 46 33v3
q-78 23 -78 87q0 41 47 88q64 57 121 57q29 0 46 -14.5t17 -34.5q0 -27 -32 -65h-2q-18 35 -32 39q-10 3 -31 3q-25 0 -47.5 -11.5t-22.5 -23.5q0 -22 24.5 -37.5t55 -21t63.5 -5.5q34 0 102 4z" />
    <glyph glyph-name="uni0678.medi" unicode="&#x678;" horiz-adv-x="646" 
d="M0 128h22q61 0 111 23.5t61 64.5l29 108l69 50l6 -7q-22 -80 -22 -116q0 -57 33 -83q49 -40 124 -40h213v-128h-218q-160 0 -206 102h-4q-25 -49 -79 -75.5t-120 -26.5h-19q-37 0 -53.5 20.5t-16.5 46.5q0 23 17 42t53 19zM632 629v-3q-19 -39 -39 -68q-146 -23 -260 -75
l-2 3l24 42q19 24 46 33v3q-78 23 -78 87q0 41 47 88q64 57 121 57q29 0 46 -14.5t17 -34.5q0 -27 -32 -65h-2q-18 35 -32 39q-10 3 -31 3q-25 0 -47.5 -11.5t-22.5 -23.5q0 -22 24.5 -37.5t55 -21t63.5 -5.5q34 0 102 4z" />
    <glyph glyph-name="uni0678.fina" unicode="&#x678;" horiz-adv-x="1285" 
d="M664 128h621v-128h-326q4 -37 4 -72q0 -22 -16 -63.5t-29 -61.5q-95 -85 -224 -135.5t-242 -50.5q-177 0 -275 108q-87 97 -87 279q0 75 26 167t68 163l38 -17q-61 -148 -61 -251q0 -135 80 -218q91 -94 242 -94q143 0 319 86q80 45 90 69q-18 38 -97.5 64.5t-193.5 26.5
l-6 14zM1275 589v-3q-19 -39 -39 -68q-146 -23 -260 -75l-2 3l24 42q19 24 46 33v3q-78 23 -78 87q0 41 47 88q64 57 121 57q29 0 46 -14.5t17 -34.5q0 -27 -32 -65h-2q-18 35 -32 39q-11 3 -31 3q-25 0 -47.5 -11.5t-22.5 -23.5q0 -22 24.5 -37.5t55 -21t63.5 -5.5
q34 0 102 4z" />
    <glyph glyph-name="uni067C.init" unicode="&#x67c;" horiz-adv-x="441" 
d="M273 52q30 -16 48 -45.5t18 -64.5q0 -52 -36.5 -88.5t-88.5 -36.5t-88.5 36.5t-36.5 88.5q0 33 16 62q-54 -4 -93 -4h-12q-37 0 -53.5 20.5t-16.5 46.5q0 23 17 42t53 19h17q145 0 197 19q57 21 57 44q0 51 -100 247q37 66 75 113h5q100 -176 100 -305q0 -100 -78 -194z
M361 742q-43 -61 -76 -92q-59 56 -117 104q37 52 79 95q53 -42 114 -107zM168 729q-43 -61 -76 -92q-59 56 -117 104q37 52 79 95q53 -42 114 -107zM139 -58q0 -31 22 -53t53 -22t53 22t22 53t-22 53t-53 22t-53 -22t-22 -53z" />
    <glyph glyph-name="uni067C.medi" unicode="&#x67c;" horiz-adv-x="581" 
d="M338 599q-43 -61 -76 -92q-59 56 -117 104q37 52 79 95q53 -42 114 -107zM531 612q-43 -61 -76 -92q-59 56 -117 104q37 52 79 95q53 -42 114 -107zM264 24q43 -36 43 -92q0 -50 -35.5 -85t-84.5 -35t-84.5 35t-35.5 85q0 37 21 68h-88q-37 0 -53.5 20.5t-16.5 46.5
q0 23 17 42t53 19h152q61 0 111 23.5t61 64.5l29 108l69 50l6 -7q-22 -80 -22 -116q0 -57 33 -83q49 -40 124 -40h18v-128h-23q-160 0 -206 102h-4q-27 -52 -84 -78zM112 -68q0 -31 22 -53t53 -22t53 22t22 53t-22 53t-53 22t-53 -22t-22 -53z" />
    <glyph glyph-name="uni067C.fina" unicode="&#x67c;" horiz-adv-x="1361" 
d="M860 732q-43 -61 -76 -92q-59 56 -117 104q37 52 79 95q53 -42 114 -107zM667 719q-43 -61 -76 -92q-59 56 -117 104q37 52 79 95q53 -42 114 -107zM739 -29q42 -40 42 -100q0 -58 -41 -99t-99 -41t-99 41t-41 99q0 52 33 90q-179 8 -287 76q-147 94 -147 271
q0 131 59 242l40 -17q-29 -87 -29 -152q0 -68 35.5 -126t96.5 -95q107 -64 318 -64q149 0 341 45q77 18 133 43l44 140l68 49l6 -7q-24 -75 -24 -119q0 -52 35 -81q45 -38 120 -38h18v-128h-23q-78 0 -127.5 19t-76.5 68q-59 -36 -156 -64q-119 -35 -239 -52zM551 -129
q0 -37 26.5 -63.5t63.5 -26.5t63.5 26.5t26.5 63.5t-26.5 63.5t-63.5 26.5t-63.5 -26.5t-26.5 -63.5z" />
    <glyph glyph-name="uni067D.init" unicode="&#x67d;" horiz-adv-x="440" 
d="M0 128h17q145 0 197 19q57 21 57 44q0 51 -100 247q37 66 75 113h5q100 -176 100 -305q0 -93 -70 -186q-34 -34 -93.5 -47t-175.5 -13h-12q-37 0 -53.5 20.5t-16.5 46.5q0 23 17 42t53 19zM355 953q-43 -61 -76 -92q-59 56 -117 104q37 52 79 95q53 -42 114 -107z
M162 940q-43 -61 -76 -92q-59 56 -117 104q37 52 79 95q53 -42 114 -107zM302 741q-43 -61 -76 -92q-59 56 -117 104q37 52 79 95q53 -42 114 -107z" />
    <glyph glyph-name="uni067D.medi" unicode="&#x67d;" horiz-adv-x="451" 
d="M0 128h22q61 0 111 23.5t61 64.5l29 108l69 50l6 -7q-22 -80 -22 -116q0 -57 33 -83q49 -40 124 -40h18v-128h-23q-160 0 -206 102h-4q-25 -49 -79 -75.5t-120 -26.5h-19q-37 0 -53.5 20.5t-16.5 46.5q0 23 17 42t53 19zM385 813q-43 -61 -76 -92q-59 56 -117 104
q37 52 79 95q53 -42 114 -107zM192 800q-43 -61 -76 -92q-59 56 -117 104q37 52 79 95q53 -42 114 -107zM332 601q-43 -61 -76 -92q-59 56 -117 104q37 52 79 95q53 -42 114 -107z" />
    <glyph glyph-name="uni067D.fina" unicode="&#x67d;" horiz-adv-x="1361" 
d="M1361 128v-128h-23q-78 0 -127.5 19t-76.5 68q-62 -38 -156 -65q-212 -62 -388 -62q-222 0 -343 77q-147 94 -147 271q0 131 59 242l40 -17q-29 -87 -29 -152q0 -68 35.5 -126t96.5 -95q107 -64 318 -64q154 0 342 44q70 17 132 44l44 140l64 50l6 -7q-23 -67 -23 -112
q0 -63 34 -89q48 -38 124 -38h18zM847 893q-43 -61 -76 -92q-59 56 -117 104q37 52 79 95q53 -42 114 -107zM654 880q-43 -61 -76 -92q-59 56 -117 104q37 52 79 95q53 -42 114 -107zM794 681q-43 -61 -76 -92q-59 56 -117 104q37 52 79 95q53 -42 114 -107z" />
    <glyph glyph-name="uni0681.init" unicode="&#x681;" horiz-adv-x="935" 
d="M0 128h61q233 0 534 181l1 4q-189 70 -314 70q-83 0 -127 -50l12 -50l-30 -90h-10l-49 132q6 82 66 131t151 49q113 0 328 -87q77 -31 171 -32l81 1l3 -2l-53 -105q-111 3 -173 -37l-167 -109q-206 -134 -433 -134h-52q-37 0 -53.5 20.5t-16.5 46.5q0 23 17 42t53 19z
M552 829v-3q-19 -39 -39 -68q-146 -23 -260 -75l-2 3l24 42q19 24 46 33v3q-78 23 -78 87q0 41 47 88q64 57 121 57q29 0 46 -14.5t17 -34.5q0 -27 -32 -65h-2q-18 35 -32 39q-10 3 -31 3q-25 0 -47.5 -11.5t-22.5 -23.5q0 -22 24.5 -37.5t55 -21t63.5 -5.5q34 0 102 4z" />
    <glyph glyph-name="uni0681.medi" unicode="&#x681;" horiz-adv-x="915" 
d="M595 309l1 4q-189 70 -314 70q-83 0 -127 -50l12 -50l-30 -90h-10l-49 132q6 82 66 131t151 49q112 0 328 -86q83 -33 171 -33h87l2 -2l-62 -103q-109 0 -169 -38l-167 -109q-209 -134 -439 -134h-46q-37 0 -53.5 20.5t-16.5 46.5q0 23 17 42t53 19h61q233 0 534 181z
M672 221l36 24l3 -1q5 -116 177 -116h27v-128h-31q-215 0 -215 165q0 28 3 56zM552 829v-3q-19 -39 -39 -68q-146 -23 -260 -75l-2 3l24 42q19 24 46 33v3q-78 23 -78 87q0 41 47 88q64 57 121 57q29 0 46 -14.5t17 -34.5q0 -27 -32 -65h-2q-18 35 -32 39q-10 3 -31 3
q-25 0 -47.5 -11.5t-22.5 -23.5q0 -22 24.5 -37.5t55 -21t63.5 -5.5q34 0 102 4z" />
    <glyph glyph-name="uni0681.fina" unicode="&#x681;" horiz-adv-x="939" 
d="M561 324l-1 3q-86 32 -147 44t-131 12q-83 0 -127 -50l20 -84l-28 -79l-11 -3l-58 158q6 82 66 131t151 49q113 0 328 -87q82 -31 171 -32l88 1l1 -2l-60 -101q-46 -5 -134.5 -28t-132.5 -38q-172 -66 -271 -151t-99 -182q0 -101 67 -176.5t179 -113.5t253 -38
q118 0 257 22l3 -10q-104 -86 -163 -119q-94 -18 -189 -18q-101 0 -187 25t-152.5 73.5t-104.5 127.5t-38 180q0 174 128.5 307t321.5 179zM672 221l36 24l3 -1q5 -116 177 -116h51v-128h-55q-215 0 -215 165q0 28 3 56zM622 829v-3q-19 -39 -39 -68q-146 -23 -260 -75l-2 3
l24 42q19 24 46 33v3q-78 23 -78 87q0 41 47 88q64 57 121 57q29 0 46 -14.5t17 -34.5q0 -27 -32 -65h-2q-18 35 -32 39q-11 3 -31 3q-25 0 -47.5 -11.5t-22.5 -23.5q0 -22 24.5 -37.5t55 -21t63.5 -5.5q34 0 102 4z" />
    <glyph glyph-name="uni0682.init" unicode="&#x682;" horiz-adv-x="935" 
d="M0 128h61q233 0 534 181l1 4q-189 70 -314 70q-83 0 -127 -50l12 -50l-30 -90h-10l-49 132q6 82 66 131t151 49q113 0 328 -87q77 -31 171 -32l81 1l3 -2l-53 -105q-111 3 -173 -37l-167 -109q-206 -134 -433 -134h-52q-37 0 -53.5 20.5t-16.5 46.5q0 23 17 42t53 19z
M441 936q-42 -58 -76 -90q-58 53 -118 102q38 51 79 92q54 -40 115 -104zM461 734q-46 -62 -76 -89q-63 57 -118 101q35 48 79 93q55 -42 115 -105z" />
    <glyph glyph-name="uni0682.medi" unicode="&#x682;" horiz-adv-x="915" 
d="M595 309l1 4q-189 70 -314 70q-83 0 -127 -50l12 -50l-30 -90h-10l-49 132q6 82 66 131t151 49q112 0 328 -86q83 -33 171 -33h87l2 -2l-62 -103q-109 0 -169 -38l-167 -109q-209 -134 -439 -134h-46q-37 0 -53.5 20.5t-16.5 46.5q0 23 17 42t53 19h61q233 0 534 181z
M672 221l36 24l3 -1q5 -116 177 -116h27v-128h-31q-215 0 -215 165q0 28 3 56zM441 936q-42 -58 -76 -90q-58 53 -118 102q38 51 79 92q54 -40 115 -104zM461 734q-46 -62 -76 -89q-63 57 -118 101q35 48 79 93q55 -42 115 -105z" />
    <glyph glyph-name="uni0682.fina" unicode="&#x682;" horiz-adv-x="939" 
d="M561 324l-1 3q-86 32 -147 44t-131 12q-83 0 -127 -50l20 -84l-28 -79l-11 -3l-58 158q6 82 66 131t151 49q113 0 328 -87q82 -31 171 -32l88 1l1 -2l-60 -101q-46 -5 -134.5 -28t-132.5 -38q-172 -66 -271 -151t-99 -182q0 -101 67 -176.5t179 -113.5t253 -38
q118 0 257 22l3 -10q-104 -86 -163 -119q-94 -18 -189 -18q-101 0 -187 25t-152.5 73.5t-104.5 127.5t-38 180q0 174 128.5 307t321.5 179zM672 221l36 24l3 -1q5 -116 177 -116h51v-128h-55q-215 0 -215 165q0 28 3 56zM521 936q-42 -58 -76 -90q-58 53 -118 102
q38 51 79 92q54 -40 115 -104zM541 734q-46 -62 -76 -89q-63 57 -118 101q35 48 79 93q55 -42 115 -105z" />
    <glyph glyph-name="uni0685.init" unicode="&#x685;" horiz-adv-x="935" 
d="M0 128h61q233 0 534 181l1 4q-189 70 -314 70q-83 0 -127 -50l12 -50l-30 -90h-10l-49 132q6 82 66 131t151 49q113 0 328 -87q77 -31 171 -32l81 1l3 -2l-53 -105q-111 3 -173 -37l-167 -109q-206 -134 -433 -134h-52q-37 0 -53.5 20.5t-16.5 46.5q0 23 17 42t53 19z
M388 739q-43 -61 -76 -92q-59 56 -117 104q37 52 79 95q53 -42 114 -107zM442 952q-43 -61 -76 -92q-59 56 -117 104q37 52 79 95q53 -42 114 -107zM581 752q-43 -61 -76 -92q-59 56 -117 104q37 52 79 95q53 -42 114 -107z" />
    <glyph glyph-name="uni0685.medi" unicode="&#x685;" horiz-adv-x="915" 
d="M595 309l1 4q-189 70 -314 70q-83 0 -127 -50l12 -50l-30 -90h-10l-49 132q6 82 66 131t151 49q112 0 328 -86q83 -33 171 -33h87l2 -2l-62 -103q-109 0 -169 -38l-167 -109q-209 -134 -439 -134h-46q-37 0 -53.5 20.5t-16.5 46.5q0 23 17 42t53 19h61q233 0 534 181z
M672 221l36 24l3 -1q5 -116 177 -116h27v-128h-31q-215 0 -215 165q0 28 3 56zM388 739q-43 -61 -76 -92q-59 56 -117 104q37 52 79 95q53 -42 114 -107zM442 952q-43 -61 -76 -92q-59 56 -117 104q37 52 79 95q53 -42 114 -107zM581 752q-43 -61 -76 -92q-59 56 -117 104
q37 52 79 95q53 -42 114 -107z" />
    <glyph glyph-name="uni0685.fina" unicode="&#x685;" horiz-adv-x="939" 
d="M561 324l-1 3q-86 32 -147 44t-131 12q-83 0 -127 -50l20 -84l-28 -79l-11 -3l-58 158q6 82 66 131t151 49q113 0 328 -87q82 -31 171 -32l88 1l1 -2l-60 -101q-46 -5 -134.5 -28t-132.5 -38q-172 -66 -271 -151t-99 -182q0 -101 67 -176.5t179 -113.5t253 -38
q118 0 257 22l3 -10q-104 -86 -163 -119q-94 -18 -189 -18q-101 0 -187 25t-152.5 73.5t-104.5 127.5t-38 180q0 174 128.5 307t321.5 179zM672 221l36 24l3 -1q5 -116 177 -116h51v-128h-55q-215 0 -215 165q0 28 3 56zM468 729q-43 -61 -76 -92q-59 56 -117 104
q37 52 79 95q53 -42 114 -107zM522 942q-43 -61 -76 -92q-59 56 -117 104q37 52 79 95q53 -42 114 -107zM661 742q-43 -61 -76 -92q-59 56 -117 104q37 52 79 95q53 -42 114 -107z" />
    <glyph glyph-name="uni0689.fina" unicode="&#x689;" horiz-adv-x="770" 
d="M444 52q31 -17 50 -47.5t19 -67.5q0 -54 -38 -92t-92 -38t-92 38t-38 92q0 33 16 63q-84 0 -129 48.5t-45 136.5q0 36 3 74l39 3q6 -134 141 -134q76 0 163 50q28 16 46.5 36.5t18.5 38.5q0 70 -83 372q54 82 71 103l6 -4q47 -181 95 -445q13 -72 56.5 -111.5
t101.5 -39.5h17v-128h-19q-153 0 -204 163h-5q-13 -60 -72 -96q-5 -2 -13.5 -7t-12.5 -8zM303 -63q0 -33 23.5 -56.5t56.5 -23.5t56.5 23.5t23.5 56.5t-23.5 56.5t-56.5 23.5t-56.5 -23.5t-23.5 -56.5z" />
    <glyph glyph-name="uni068A.fina" unicode="&#x68a;" horiz-adv-x="770" 
d="M770 128v-128h-19q-153 0 -204 163h-5q-13 -60 -72 -96q-111 -67 -201 -67q-84 0 -129 48.5t-45 136.5q0 36 3 74l39 3q6 -134 141 -134q76 0 163 50q28 16 46.5 36.5t18.5 38.5q0 70 -83 372q54 82 71 103l6 -4q47 -181 95 -445q13 -72 56.5 -111.5t101.5 -39.5h17z
M232 -291q49 65 81 102q60 -44 120 -107q-35 -57 -83 -98q-27 26 -118 103z" />
    <glyph glyph-name="uni068B.fina" unicode="&#x68b;" horiz-adv-x="770" 
d="M770 128v-128h-19q-153 0 -204 163h-5q-13 -60 -72 -96q-111 -67 -201 -67q-84 0 -129 48.5t-45 136.5q0 36 3 74l39 3q6 -134 141 -134q76 0 163 50q28 16 46.5 36.5t18.5 38.5q0 70 -83 372q54 82 71 103l6 -4q47 -181 95 -445q13 -72 56.5 -111.5t101.5 -39.5h17z
M293 837l-94 77l4 6l105 -4q18 33 18 108q0 62 -6.5 124t-6.5 67q0 4 0.5 8t2.5 8l3.5 7t5 8t5.5 7.5t6.5 8t7 8t8 8.5t7.5 8h6q9 -56 41 -111l-36 -31l2 -75q0 -37 -10 -67l3 -2q76 116 150 116q44 0 71.5 -30.5t27.5 -74.5q0 -30 -17 -73q-22 -50 -67 -73
q-65 -31 -162 -31q-52 0 -75 3zM345 917q194 5 230 58q-18 61 -76 61q-79 0 -154 -119zM252 -291q49 65 81 102q60 -44 120 -107q-35 -57 -83 -98q-27 26 -118 103z" />
    <glyph glyph-name="uni068F.fina" unicode="&#x68f;" horiz-adv-x="770" 
d="M770 128v-128h-19q-153 0 -204 163h-5q-13 -60 -72 -96q-111 -67 -201 -67q-84 0 -129 48.5t-45 136.5q0 36 3 74l39 3q6 -134 141 -134q76 0 163 50q28 16 46.5 36.5t18.5 38.5q0 70 -83 372q54 82 71 103l6 -4q47 -181 95 -445q13 -72 56.5 -111.5t101.5 -39.5h17z
M607 1123q-43 -61 -76 -92q-59 56 -117 104q37 52 79 95q53 -42 114 -107zM414 1110q-43 -61 -76 -92q-59 56 -117 104q37 52 79 95q53 -42 114 -107zM554 911q-43 -61 -76 -92q-59 56 -117 104q37 52 79 95q53 -42 114 -107z" />
    <glyph glyph-name="uni0690.fina" unicode="&#x690;" horiz-adv-x="770" 
d="M770 128v-128h-19q-153 0 -204 163h-5q-13 -60 -72 -96q-111 -67 -201 -67q-84 0 -129 48.5t-45 136.5q0 36 3 74l39 3q6 -134 141 -134q76 0 163 50q28 16 46.5 36.5t18.5 38.5q0 70 -83 372q54 82 71 103l6 -4q47 -181 95 -445q13 -72 56.5 -111.5t101.5 -39.5h17z
M427 886q-46 -63 -72 -86q-52 51 -110 98q37 51 74 89q51 -39 108 -101zM608 899q-37 -55 -71 -87q-53 50 -110 98q36 51 74 89q48 -38 107 -100zM415 1076q-41 -58 -71 -86q-66 61 -110 98q30 41 74 89q52 -40 107 -101zM597 1088q-46 -63 -72 -86q-52 51 -110 98
q39 53 75 89q50 -40 107 -101z" />
    <glyph glyph-name="uni0692.fina" unicode="&#x692;" horiz-adv-x="656" 
d="M406 343l7 1q47 -113 95.5 -164.5t129.5 -51.5h18v-128h-21q-66 0 -101 32h-4q2 -24 2 -35q0 -84 -40 -155q-57 -100 -119 -149.5t-120 -49.5q-103 0 -250 78l15 34q46 -22 115 -22q66 0 139.5 43.5t127.5 114t65 142.5q-9 21 -27 45q-48 68 -87 149q26 59 55 116z
M526 768q15 -34 23 -75q-134 -153 -150 -212l-19 -10q-10 60 -175 195l23 97h8q121 -119 154 -176h3q29 61 133 181z" />
    <glyph glyph-name="uni0693.fina" unicode="&#x693;" horiz-adv-x="696" 
d="M497 -148h10q54 0 92 -38t38 -92t-38 -92t-92 -38q-48 0 -84 30t-44 76q-65 -55 -126 -55q-103 0 -250 78l15 34q46 -22 115 -22q66 0 139.5 43.5t127.5 114t65 142.5q-9 21 -27 45q-48 68 -87 149q26 59 55 116l7 1q47 -113 95.5 -164.5t129.5 -51.5h58v-128h-61
q-66 0 -101 32h-4q2 -24 2 -35q0 -78 -35 -145zM427 -278q0 -33 23.5 -56.5t56.5 -23.5t56.5 23.5t23.5 56.5t-23.5 56.5t-56.5 23.5t-56.5 -23.5t-23.5 -56.5z" />
    <glyph glyph-name="uni0694.fina" unicode="&#x694;" horiz-adv-x="656" 
d="M406 343l7 1q47 -113 95.5 -164.5t129.5 -51.5h18v-128h-21q-66 0 -101 32h-4q2 -24 2 -35q0 -84 -40 -155q-57 -100 -119 -149.5t-120 -49.5q-103 0 -250 78l15 34q46 -22 115 -22q66 0 139.5 43.5t127.5 114t65 142.5q-9 21 -27 45q-48 68 -87 149q26 59 55 116z
M365 -511q49 65 81 102q60 -44 120 -107q-35 -57 -83 -98q-27 26 -118 103z" />
    <glyph glyph-name="uni0695.fina" unicode="&#x695;" horiz-adv-x="656" 
d="M406 343l7 1q47 -113 95.5 -164.5t129.5 -51.5h18v-128h-21q-66 0 -101 32h-4q2 -24 2 -35q0 -84 -40 -155q-57 -100 -119 -149.5t-120 -49.5q-103 0 -250 78l15 34q46 -22 115 -22q66 0 139.5 43.5t127.5 114t65 142.5q-9 21 -27 45q-48 68 -87 149q26 59 55 116z
M516 -442q15 -34 23 -75q-134 -153 -150 -212l-19 -10q-10 60 -175 195l23 97h8q121 -119 154 -176h3q29 61 133 181z" />
    <glyph glyph-name="uni0696.fina" unicode="&#x696;" horiz-adv-x="656" 
d="M406 343l7 1q47 -113 95.5 -164.5t129.5 -51.5h18v-128h-21q-66 0 -101 32h-4q2 -24 2 -35q0 -84 -40 -155q-57 -100 -119 -149.5t-120 -49.5q-103 0 -250 78l15 34q46 -22 115 -22q66 0 139.5 43.5t127.5 114t65 142.5q-9 21 -27 45q-48 68 -87 149q26 59 55 116z
M365 -511q49 65 81 102q60 -44 120 -107q-35 -57 -83 -98q-27 26 -118 103zM85 0q49 65 81 102q60 -44 120 -107q-35 -57 -83 -98q-27 26 -118 103z" />
    <glyph glyph-name="uni0697.fina" unicode="&#x697;" horiz-adv-x="656" 
d="M406 343l7 1q47 -113 95.5 -164.5t129.5 -51.5h18v-128h-21q-66 0 -101 32h-4q2 -24 2 -35q0 -84 -40 -155q-57 -100 -119 -149.5t-120 -49.5q-103 0 -250 78l15 34q46 -22 115 -22q66 0 139.5 43.5t127.5 114t65 142.5q-9 21 -27 45q-48 68 -87 149q26 59 55 116z
M541 572q-43 -61 -76 -92q-59 56 -117 104q37 52 79 95q53 -42 114 -107zM348 559q-43 -61 -76 -92q-59 56 -117 104q37 52 79 95q53 -42 114 -107z" />
    <glyph glyph-name="uni0699.fina" unicode="&#x699;" horiz-adv-x="656" 
d="M406 343l7 1q47 -113 95.5 -164.5t129.5 -51.5h18v-128h-21q-66 0 -101 32h-4q2 -24 2 -35q0 -84 -40 -155q-57 -100 -119 -149.5t-120 -49.5q-103 0 -250 78l15 34q46 -22 115 -22q66 0 139.5 43.5t127.5 114t65 142.5q-9 21 -27 45q-48 68 -87 149q26 59 55 116z
M350 546q-46 -63 -72 -86q-52 51 -110 98q37 51 74 89q51 -39 108 -101zM531 559q-37 -55 -71 -87q-53 50 -110 98q36 51 74 89q48 -38 107 -100zM338 736q-41 -58 -71 -86q-66 61 -110 98q30 41 74 89q52 -40 107 -101zM520 748q-46 -63 -72 -86q-52 51 -110 98
q39 53 75 89q50 -40 107 -101z" />
    <glyph glyph-name="uni069A.init" unicode="&#x69a;" horiz-adv-x="905" 
d="M800 431l6 -3q16 -100 16 -178q0 -67 -36 -137q-66 -110 -148 -110q-66 0 -125 83h-8q-79 -86 -175 -86q-87 0 -96 85h-4q-73 -85 -213 -85h-17q-37 0 -53.5 20.5t-16.5 46.5q0 23 17 42t53 19h34q147 2 211 93l55 79l77 27l4 -5q-68 -109 -68 -144q0 -23 14.5 -36.5
t37.5 -13.5q48 0 89 29q6 4 10.5 8.5t9 10.5t7.5 10.5t7 14t6 15t6.5 19.5t7 22t8 27.5t9.5 31.5l60 35l6 -4q-13 -52 -13 -98q0 -53 32 -84t72 -31q22 0 37.5 12t15.5 33q0 49 -25 162q42 49 90 90zM405 690q49 65 81 102q60 -44 120 -107q-35 -57 -83 -98q-27 26 -118 103
zM395 -290q49 65 81 102q60 -44 120 -107q-35 -57 -83 -98q-27 26 -118 103z" />
    <glyph glyph-name="uni069A.medi" unicode="&#x69a;" horiz-adv-x="1024" 
d="M1024 128v-128h-25q-164 0 -206 94h-6q-80 -94 -171 -94q-90 0 -109 83h-4q-76 -83 -173 -83q-87 0 -96 85h-4q-73 -85 -213 -85h-17q-37 0 -53.5 20.5t-16.5 46.5q0 23 17 42t53 19h34q144 2 211 93l50 78l77 27l4 -5q-65 -113 -65 -143q0 -23 15 -36.5t39 -13.5
q48 0 87 30q39 28 65 88l24 59l76 35l4 -4q-41 -104 -41 -150q0 -23 14.5 -40.5t41.5 -17.5q36 0 69 22q38 26 58 96q1 5 4.5 16.5t7.5 27.5t8 35l76 51l4 -3q-25 -85 -25 -137q0 -108 164 -108h22zM445 680q49 65 81 102q60 -44 120 -107q-35 -57 -83 -98q-27 26 -118 103z
M425 -290q49 65 81 102q60 -44 120 -107q-35 -57 -83 -98q-27 26 -118 103z" />
    <glyph glyph-name="uni069A.fina" unicode="&#x69a;" horiz-adv-x="1467" 
d="M773 0h-20q-17 -110 -38 -160q-38 -85 -134 -140t-202 -55q-141 0 -216 85t-75 222q0 158 79 280l35 -18q-48 -108 -48 -187q0 -117 69.5 -179.5t174.5 -62.5q112 0 204.5 69.5t92.5 142.5q0 48 -28 121t-75 144q23 43 66 107h4q49 -95 82 -191q11 -27 24.5 -38.5
t39.5 -11.5q39 0 76 28q40 27 58 79l26 74l68 31l4 -5q-30 -94 -30 -146q0 -30 19 -45.5t50 -15.5q90 0 123 133l17 70l73 43l4 -5q-24 -92 -24 -137q0 -104 173 -104h22v-128h-25q-174 0 -216 94h-6q-80 -94 -175 -94q-88 0 -107 83h-6q-55 -83 -159 -83zM855 680
q49 65 81 102q60 -44 120 -107q-35 -57 -83 -98q-27 26 -118 103zM925 -300q49 65 81 102q60 -44 120 -107q-35 -57 -83 -98q-27 26 -118 103z" />
    <glyph glyph-name="uni069B.init" unicode="&#x69b;" horiz-adv-x="905" 
d="M800 431l6 -3q16 -100 16 -178q0 -67 -36 -137q-66 -110 -148 -110q-66 0 -125 83h-8q-79 -86 -175 -86q-87 0 -96 85h-4q-73 -85 -213 -85h-17q-37 0 -53.5 20.5t-16.5 46.5q0 23 17 42t53 19h34q147 2 211 93l55 79l77 27l4 -5q-68 -109 -68 -144q0 -23 14.5 -36.5
t37.5 -13.5q48 0 89 29q6 4 10.5 8.5t9 10.5t7.5 10.5t7 14t6 15t6.5 19.5t7 22t8 27.5t9.5 31.5l60 35l6 -4q-13 -52 -13 -98q0 -53 32 -84t72 -31q22 0 37.5 12t15.5 33q0 49 -25 162q42 49 90 90zM678 -247q-43 -61 -76 -92q-59 56 -117 104q37 52 79 95q53 -42 114 -107
zM485 -260q-43 -61 -76 -92q-59 56 -117 104q37 52 79 95q53 -42 114 -107zM625 -459q-43 -61 -76 -92q-59 56 -117 104q37 52 79 95q53 -42 114 -107z" />
    <glyph glyph-name="uni069B.medi" unicode="&#x69b;" horiz-adv-x="1024" 
d="M1024 128v-128h-25q-164 0 -206 94h-6q-80 -94 -171 -94q-90 0 -109 83h-4q-76 -83 -173 -83q-87 0 -96 85h-4q-73 -85 -213 -85h-17q-37 0 -53.5 20.5t-16.5 46.5q0 23 17 42t53 19h34q144 2 211 93l50 78l77 27l4 -5q-65 -113 -65 -143q0 -23 15 -36.5t39 -13.5
q48 0 87 30q39 28 65 88l24 59l76 35l4 -4q-41 -104 -41 -150q0 -23 14.5 -40.5t41.5 -17.5q36 0 69 22q38 26 58 96q1 5 4.5 16.5t7.5 27.5t8 35l76 51l4 -3q-25 -85 -25 -137q0 -108 164 -108h22zM688 -247q-43 -61 -76 -92q-59 56 -117 104q37 52 79 95q53 -42 114 -107z
M495 -260q-43 -61 -76 -92q-59 56 -117 104q37 52 79 95q53 -42 114 -107zM635 -459q-43 -61 -76 -92q-59 56 -117 104q37 52 79 95q53 -42 114 -107z" />
    <glyph glyph-name="uni069B.fina" unicode="&#x69b;" horiz-adv-x="1467" 
d="M773 0h-20q-17 -110 -38 -160q-38 -85 -134 -140t-202 -55q-141 0 -216 85t-75 222q0 158 79 280l35 -18q-48 -108 -48 -187q0 -117 69.5 -179.5t174.5 -62.5q112 0 204.5 69.5t92.5 142.5q0 48 -28 121t-75 144q23 43 66 107h4q49 -95 82 -191q11 -27 24.5 -38.5
t39.5 -11.5q39 0 76 28q40 27 58 79l26 74l68 31l4 -5q-30 -94 -30 -146q0 -30 19 -45.5t50 -15.5q90 0 123 133l17 70l73 43l4 -5q-24 -92 -24 -137q0 -104 173 -104h22v-128h-25q-174 0 -216 94h-6q-80 -94 -175 -94q-88 0 -107 83h-6q-55 -83 -159 -83zM1208 -247
q-43 -61 -76 -92q-59 56 -117 104q37 52 79 95q53 -42 114 -107zM1015 -260q-43 -61 -76 -92q-59 56 -117 104q37 52 79 95q53 -42 114 -107zM1155 -459q-43 -61 -76 -92q-59 56 -117 104q37 52 79 95q53 -42 114 -107z" />
    <glyph glyph-name="uni069C.init" unicode="&#x69c;" horiz-adv-x="905" 
d="M592 802q-43 -61 -76 -92q-59 56 -117 104q37 52 79 95q53 -42 114 -107zM538 589q-43 -61 -76 -92q-59 56 -117 104q37 52 79 95q53 -42 114 -107zM731 602q-43 -61 -76 -92q-59 56 -117 104q37 52 79 95q53 -42 114 -107zM800 431l6 -3q16 -100 16 -178q0 -67 -36 -137
q-66 -110 -148 -110q-66 0 -125 83h-8q-79 -86 -175 -86q-87 0 -96 85h-4q-73 -85 -213 -85h-17q-37 0 -53.5 20.5t-16.5 46.5q0 23 17 42t53 19h34q147 2 211 93l55 79l77 27l4 -5q-68 -109 -68 -144q0 -23 14.5 -36.5t37.5 -13.5q48 0 89 29q6 4 10.5 8.5t9 10.5t7.5 10.5
t7 14t6 15t6.5 19.5t7 22t8 27.5t9.5 31.5l60 35l6 -4q-13 -52 -13 -98q0 -53 32 -84t72 -31q22 0 37.5 12t15.5 33q0 49 -25 162q42 49 90 90zM698 -247q-43 -61 -76 -92q-59 56 -117 104q37 52 79 95q53 -42 114 -107zM505 -260q-43 -61 -76 -92q-59 56 -117 104
q37 52 79 95q53 -42 114 -107zM645 -459q-43 -61 -76 -92q-59 56 -117 104q37 52 79 95q53 -42 114 -107z" />
    <glyph glyph-name="uni069C.medi" unicode="&#x69c;" horiz-adv-x="1024" 
d="M622 792q-43 -61 -76 -92q-59 56 -117 104q37 52 79 95q53 -42 114 -107zM568 579q-43 -61 -76 -92q-59 56 -117 104q37 52 79 95q53 -42 114 -107zM761 592q-43 -61 -76 -92q-59 56 -117 104q37 52 79 95q53 -42 114 -107zM1024 128v-128h-25q-164 0 -206 94h-6
q-80 -94 -171 -94q-90 0 -109 83h-4q-76 -83 -173 -83q-87 0 -96 85h-4q-73 -85 -213 -85h-17q-37 0 -53.5 20.5t-16.5 46.5q0 23 17 42t53 19h34q144 2 211 93l50 78l77 27l4 -5q-65 -113 -65 -143q0 -23 15 -36.5t39 -13.5q48 0 87 30q39 28 65 88l24 59l76 35l4 -4
q-41 -104 -41 -150q0 -23 14.5 -40.5t41.5 -17.5q36 0 69 22q38 26 58 96q1 5 4.5 16.5t7.5 27.5t8 35l76 51l4 -3q-25 -85 -25 -137q0 -108 164 -108h22zM718 -247q-43 -61 -76 -92q-59 56 -117 104q37 52 79 95q53 -42 114 -107zM525 -260q-43 -61 -76 -92
q-59 56 -117 104q37 52 79 95q53 -42 114 -107zM665 -459q-43 -61 -76 -92q-59 56 -117 104q37 52 79 95q53 -42 114 -107z" />
    <glyph glyph-name="uni069C.fina" unicode="&#x69c;" horiz-adv-x="1467" 
d="M1191 602q-43 -61 -76 -92q-59 56 -117 104q37 52 79 95q53 -42 114 -107zM998 589q-43 -61 -76 -92q-59 56 -117 104q37 52 79 95q53 -42 114 -107zM1052 802q-43 -61 -76 -92q-59 56 -117 104q37 52 79 95q53 -42 114 -107zM773 0h-20q-17 -110 -38 -160
q-38 -85 -134 -140t-202 -55q-141 0 -216 85t-75 222q0 158 79 280l35 -18q-48 -108 -48 -187q0 -117 69.5 -179.5t174.5 -62.5q112 0 204.5 69.5t92.5 142.5q0 48 -28 121t-75 144q23 43 66 107h4q49 -95 82 -191q11 -27 24.5 -38.5t39.5 -11.5q39 0 76 28q40 27 58 79
l26 74l68 31l4 -5q-30 -94 -30 -146q0 -30 19 -45.5t50 -15.5q90 0 123 133l17 70l73 43l4 -5q-24 -92 -24 -137q0 -104 173 -104h22v-128h-25q-174 0 -216 94h-6q-80 -94 -175 -94q-88 0 -107 83h-6q-55 -83 -159 -83zM1218 -247q-43 -61 -76 -92q-59 56 -117 104
q37 52 79 95q53 -42 114 -107zM1025 -260q-43 -61 -76 -92q-59 56 -117 104q37 52 79 95q53 -42 114 -107zM1165 -459q-43 -61 -76 -92q-59 56 -117 104q37 52 79 95q53 -42 114 -107z" />
    <glyph glyph-name="uni069D.init" unicode="&#x69d;" horiz-adv-x="1066" 
d="M0 128h22q67 0 111.5 22.5t53.5 65.5q15 74 26 114q26 25 66 52l6 -6q-16 -57 -16 -94q0 -71 60 -111q110 168 206 254q122 109 240 109q67 0 114.5 -32t71.5 -78q25 -51 25 -117q0 -41 -19 -95q-43 -127 -208 -181q-90 -31 -249 -31q-211 0 -288 105h-3
q-67 -105 -207 -105h-12q-37 0 -53.5 20.5t-16.5 46.5q0 23 17 42t53 19zM381 149q63 -21 187 -21q141 0 260 57q82 39 82 72q-10 65 -58 108.5t-114 43.5q-86 0 -181 -71.5t-176 -188.5zM591 -307q-43 -61 -76 -92q-59 56 -117 104q37 52 79 95q53 -42 114 -107zM784 -294
q-43 -61 -76 -92q-59 56 -117 104q37 52 79 95q53 -42 114 -107z" />
    <glyph glyph-name="uni069D.medi" unicode="&#x69d;" horiz-adv-x="1063" 
d="M0 128h22q67 0 111.5 22.5t53.5 65.5q15 74 26 114q26 25 66 52l6 -6q-16 -57 -16 -94q0 -40 12 -65t43 -46q109 166 207 252q118 103 224 103q103 0 164.5 -64.5t61.5 -156.5q0 -75 -51 -177h133v-128h-26q-151 0 -299 35q-112 -35 -233 -35q-205 0 -283 105h-3
q-67 -105 -207 -105h-12q-37 0 -53.5 20.5t-16.5 46.5q0 23 17 42t53 19zM380 149q63 -21 183 -21q71 0 143.5 13.5t116.5 31.5q82 33 82 75q-10 64 -64.5 106.5t-122.5 42.5q-157 0 -338 -248zM591 -307q-43 -61 -76 -92q-59 56 -117 104q37 52 79 95q53 -42 114 -107z
M784 -294q-43 -61 -76 -92q-59 56 -117 104q37 52 79 95q53 -42 114 -107z" />
    <glyph glyph-name="uni069D.fina" unicode="&#x69d;" horiz-adv-x="1477" 
d="M738 171q107 164 207 251q119 104 224 104q103 0 164.5 -64.5t61.5 -156.5q0 -75 -51 -177h133v-128h-38q-139 0 -287 35q-112 -35 -233 -35q-34 0 -61.5 1.5t-46.5 5t-29 5.5t-21.5 6t-12.5 4q-15 -96 -39 -154q-38 -87 -131 -144.5t-197 -57.5q-140 0 -215.5 89.5
t-75.5 227.5q0 163 76 280l38 -18q-48 -108 -48 -187q0 -118 70.5 -185t173.5 -67q87 0 168 57.5t113 129.5q-15 177 -108 318q26 48 74 107l8 -1q66 -107 83 -246zM794 149q63 -21 183 -21q69 0 142 13t118 32q82 33 82 75q-10 64 -64.5 106.5t-122.5 42.5
q-157 0 -338 -248zM1015 -307q-43 -61 -76 -92q-59 56 -117 104q37 52 79 95q53 -42 114 -107zM1208 -294q-43 -61 -76 -92q-59 56 -117 104q37 52 79 95q53 -42 114 -107z" />
    <glyph glyph-name="uni069E.init" unicode="&#x69e;" horiz-adv-x="1066" 
d="M0 128h22q67 0 111.5 22.5t53.5 65.5q15 74 26 114q26 25 66 52l6 -6q-16 -57 -16 -94q0 -71 60 -111q110 168 206 254q122 109 240 109q67 0 114.5 -32t71.5 -78q25 -51 25 -117q0 -41 -19 -95q-43 -127 -208 -181q-90 -31 -249 -31q-211 0 -288 105h-3
q-67 -105 -207 -105h-12q-37 0 -53.5 20.5t-16.5 46.5q0 23 17 42t53 19zM381 149q63 -21 187 -21q141 0 260 57q82 39 82 72q-10 65 -58 108.5t-114 43.5q-86 0 -181 -71.5t-176 -188.5zM826 762q-43 -61 -76 -92q-59 56 -117 104q37 52 79 95q53 -42 114 -107zM633 749
q-43 -61 -76 -92q-59 56 -117 104q37 52 79 95q53 -42 114 -107zM687 962q-43 -61 -76 -92q-59 56 -117 104q37 52 79 95q53 -42 114 -107z" />
    <glyph glyph-name="uni069E.medi" unicode="&#x69e;" horiz-adv-x="1063" 
d="M0 128h22q67 0 111.5 22.5t53.5 65.5q15 74 26 114q26 25 66 52l6 -6q-16 -57 -16 -94q0 -40 12 -65t43 -46q109 166 207 252q118 103 224 103q103 0 164.5 -64.5t61.5 -156.5q0 -75 -51 -177h133v-128h-26q-151 0 -299 35q-112 -35 -233 -35q-205 0 -283 105h-3
q-67 -105 -207 -105h-12q-37 0 -53.5 20.5t-16.5 46.5q0 23 17 42t53 19zM380 149q63 -21 183 -21q71 0 143.5 13.5t116.5 31.5q82 33 82 75q-10 64 -64.5 106.5t-122.5 42.5q-157 0 -338 -248zM826 762q-43 -61 -76 -92q-59 56 -117 104q37 52 79 95q53 -42 114 -107z
M633 749q-43 -61 -76 -92q-59 56 -117 104q37 52 79 95q53 -42 114 -107zM687 962q-43 -61 -76 -92q-59 56 -117 104q37 52 79 95q53 -42 114 -107z" />
    <glyph glyph-name="uni069E.fina" unicode="&#x69e;" horiz-adv-x="1477" 
d="M738 171q107 164 207 251q119 104 224 104q103 0 164.5 -64.5t61.5 -156.5q0 -75 -51 -177h133v-128h-38q-139 0 -287 35q-112 -35 -233 -35q-34 0 -61.5 1.5t-46.5 5t-29 5.5t-21.5 6t-12.5 4q-15 -96 -39 -154q-38 -87 -131 -144.5t-197 -57.5q-140 0 -215.5 89.5
t-75.5 227.5q0 163 76 280l38 -18q-48 -108 -48 -187q0 -118 70.5 -185t173.5 -67q87 0 168 57.5t113 129.5q-15 177 -108 318q26 48 74 107l8 -1q66 -107 83 -246zM794 149q63 -21 183 -21q69 0 142 13t118 32q82 33 82 75q-10 64 -64.5 106.5t-122.5 42.5
q-157 0 -338 -248zM1160 762q-43 -61 -76 -92q-59 56 -117 104q37 52 79 95q53 -42 114 -107zM967 749q-43 -61 -76 -92q-59 56 -117 104q37 52 79 95q53 -42 114 -107zM1021 962q-43 -61 -76 -92q-59 56 -117 104q37 52 79 95q53 -42 114 -107z" />
    <glyph glyph-name="uni069F.init" unicode="&#x69f;" horiz-adv-x="925" 
d="M0 128h92l54 91q15 59 15 199q0 200 -25 459q-6 62 -6 98q0 32 19 58t59 57l7 -7q0 -83 85 -220l-65 -50q9 -194 9 -324q0 -116 -35 -200h4q125 126 220 187q96 60 188 60q90 0 149 -56q75 -70 75 -177q0 -27 -23 -106q-18 -61 -84 -103t-162 -61t-178.5 -26t-172.5 -7
h-225q-37 0 -53.5 20.5t-16.5 46.5q0 23 17 42t53 19zM161 128h88q311 0 461 75q41 20 60 46q-1 56 -57.5 105t-134.5 49q-184 0 -417 -275zM569 757q-41 -58 -71 -86q-66 61 -110 98q30 41 74 89q52 -40 107 -101zM756 769q-46 -63 -72 -86q-52 51 -110 98q39 53 75 89
q50 -40 107 -101zM621 950q-41 -58 -71 -86q-66 61 -110 98q30 41 74 89q52 -40 107 -101z" />
    <glyph glyph-name="uni069F.medi" unicode="&#x69f;" horiz-adv-x="940" 
d="M0 128h70l76 91q15 59 15 199q0 200 -25 459q-6 62 -6 98q0 32 19 58t59 57l7 -7q0 -83 85 -220l-65 -50q9 -194 9 -324q0 -116 -35 -200h4q119 127 212 183q89 55 186 55q96 0 167.5 -71.5t71.5 -174.5q0 -59 -52 -148q31 -5 103 -5h39v-128h-24q-169 0 -324 32
q-175 -32 -521 -32h-71q-37 0 -53.5 20.5t-16.5 46.5q0 23 17 42t53 19zM156 128h93q462 0 517 93q0 65 -62 117.5t-146 52.5q-92 0 -183.5 -63t-218.5 -200zM579 757q-41 -58 -71 -86q-66 61 -110 98q30 41 74 89q52 -40 107 -101zM766 769q-46 -63 -72 -86q-52 51 -110 98
q39 53 75 89q50 -40 107 -101zM631 950q-41 -58 -71 -86q-66 61 -110 98q30 41 74 89q52 -40 107 -101z" />
    <glyph glyph-name="uni069F.fina" unicode="&#x69f;" horiz-adv-x="1179" 
d="M331 128l54 91q15 59 15 199q0 198 -25 459q-6 62 -6 98q0 32 19 58t59 57l7 -7q0 -83 85 -220l-65 -50q9 -194 9 -324q0 -116 -35 -200h4q119 127 212 183q89 55 186 55q96 0 167.5 -71.5t71.5 -174.5q0 -59 -52 -148q31 -5 103 -5h39v-128h-24q-169 0 -324 32
q-163 -32 -389 -32q-67 0 -111 4l-86 -121l-8 8q14 86 34 120l-76 9q-86 68 -145 130l4 12q144 -30 277 -34zM395 128h93q462 0 517 93q0 65 -62 117.5t-146 52.5q-92 0 -183.5 -63t-218.5 -200zM808 757q-41 -58 -71 -86q-66 61 -110 98q30 41 74 89q52 -40 107 -101z
M995 769q-46 -63 -72 -86q-52 51 -110 98q39 53 75 89q50 -40 107 -101zM860 950q-41 -58 -71 -86q-66 61 -110 98q30 41 74 89q52 -40 107 -101z" />
    <glyph glyph-name="uni06A0.init" unicode="&#x6a0;" horiz-adv-x="733" 
d="M486 792q-43 -61 -76 -92q-59 56 -117 104q37 52 79 95q53 -42 114 -107zM293 779q-43 -61 -76 -92q-59 56 -117 104q37 52 79 95q53 -42 114 -107zM347 992q-43 -61 -76 -92q-59 56 -117 104q37 52 79 95q53 -42 114 -107zM0 128h63q73 0 148 21v5q-117 77 -117 196
q0 59 43 131q37 61 90.5 97.5t116.5 36.5q139 0 222 -163l-19 -20q-75 64 -179 64q-75 0 -129 -27.5t-54 -56.5q0 -75 86 -142q29 -23 64 -38.5t57 -15.5q36 0 85.5 11t86 22.5t114.5 37.5l5 -5l-53 -124q-87 -31 -197 -59.5t-158 -44.5q-59 -19 -87 -27.5t-74 -17.5t-83 -9
h-31q-37 0 -53.5 20.5t-16.5 46.5q0 23 17 42t53 19z" />
    <glyph glyph-name="uni06A0.medi" unicode="&#x6a0;" horiz-adv-x="748" 
d="M0 128h42q77 0 133.5 9t128.5 41v4q-20 14 -43.5 35.5t-52 50t-44.5 43.5q-46 42 -69 42h-31l-3 2l39 115l31 4q151 33 268 33q171 0 290 -50l-35 -109l-174 -161v-4q102 -55 228 -55h40v-128h-30q-85 0 -173 30.5t-160 86.5h-4q-89 -64 -172 -90.5t-178 -26.5h-31
q-37 0 -53.5 20.5t-16.5 46.5q0 23 17 42t53 19zM401 226h4q109 78 184 149v4q-106 25 -186 25q-88 0 -185 -18v-4q10 -9 31 -30t28 -27q50 -47 124 -99zM556 762q-43 -61 -76 -92q-59 56 -117 104q37 52 79 95q53 -42 114 -107zM363 749q-43 -61 -76 -92q-59 56 -117 104
q37 52 79 95q53 -42 114 -107zM417 962q-43 -61 -76 -92q-59 56 -117 104q37 52 79 95q53 -42 114 -107z" />
    <glyph glyph-name="uni06A0.fina" unicode="&#x6a0;" horiz-adv-x="842" 
d="M449 128h-6q-295 -149 -295 -294q0 -126 126.5 -204.5t330.5 -78.5q142 0 255 29l7 -18q-95 -71 -168 -112q-52 -29 -171 -29q-93 0 -173 22.5t-142 67t-97.5 117t-35.5 166.5q0 124 78 225.5t201 178.5q-19 14 -39 34t-43.5 45t-36.5 38q-4 4 -14 13.5t-15 14t-13 10.5
t-14 8.5t-12 2.5q-13 0 -49 -12l-6 9l43 109l47 8q151 33 268 33q176 0 286 -46l-24 -113l-193 -166v-4q100 -54 240 -54h58v-128h-47q-86 0 -178.5 35t-167.5 93zM456 236l4 -1q8 5 32.5 20.5t36 22.5t33.5 22t36.5 25.5t33 25.5t33.5 30v6q-107 23 -191 23
q-100 0 -192 -20v-5q7 -7 34.5 -29.5t39.5 -33.5q5 -4 41.5 -36t58.5 -50zM641 762q-43 -61 -76 -92q-59 56 -117 104q37 52 79 95q53 -42 114 -107zM448 749q-43 -61 -76 -92q-59 56 -117 104q37 52 79 95q53 -42 114 -107zM502 962q-43 -61 -76 -92q-59 56 -117 104
q37 52 79 95q53 -42 114 -107z" />
    <glyph glyph-name="uni06A1.init" unicode="&#x6a1;" horiz-adv-x="574" 
d="M0 128h84q151 0 218 20q48 14 83 38.5t35 44.5q0 15 -2 22q-36 -4 -113 -4q-191 0 -240 108q-15 35 -15 72q0 119 75 197q65 67 129 67q117 0 191 -198q42 -111 42 -238q0 -100 -49 -158q-46 -53 -133 -76t-224 -23h-81q-37 0 -53.5 20.5t-16.5 46.5q0 23 17 42t53 19z
M402 368q-16 76 -64 135t-106 59q-47 0 -83.5 -29.5t-36.5 -59.5q0 -107 290 -105z" />
    <glyph glyph-name="uni06A1.medi" unicode="&#x6a1;" horiz-adv-x="660" 
d="M0 128h17q55 0 161 24q-35 59 -35 152q0 141 90 235q38 41 80.5 67t70.5 26q27 0 58.5 -29t58.5 -82q38 -73 38 -142q0 -117 -67 -233q62 -18 156 -18h32v-128h-29q-146 0 -327 64q-181 -64 -286 -64h-18q-37 0 -53.5 20.5t-16.5 46.5q0 23 17 42t53 19zM326 184
q53 11 105.5 50.5t52.5 69.5q0 42 -24 90q-46 90 -99 90q-55 0 -106 -53.5t-66 -113.5q24 -99 137 -133z" />
    <glyph glyph-name="uni06A1.fina" unicode="&#x6a1;" horiz-adv-x="1462" 
d="M1134 54q-113 -43 -266.5 -69t-277.5 -26q-222 0 -343 77q-147 94 -147 271q0 131 59 242l40 -17q-29 -87 -29 -152q0 -68 35.5 -126t96.5 -95q107 -64 318 -64q187 0 368 44l-8 13q-35 59 -35 152q0 140 90 235q39 41 81.5 67t69.5 26t58.5 -29.5t58.5 -81.5
q38 -73 38 -142q0 -117 -67 -233q62 -18 156 -18h32v-128h-29q-78 0 -143.5 11t-155.5 43zM1134 178q52 13 102 54t50 72q0 42 -24 90q-46 90 -99 90q-55 0 -106 -53.5t-66 -113.5q25 -103 143 -139z" />
    <glyph glyph-name="uni06A2.init" unicode="&#x6a2;" horiz-adv-x="574" 
d="M0 128h84q151 0 218 20q48 14 83 38.5t35 44.5q0 15 -2 22q-36 -4 -113 -4q-191 0 -240 108q-15 35 -15 72q0 119 75 197q65 67 129 67q117 0 191 -198q42 -111 42 -238q0 -100 -49 -158q-46 -53 -133 -76t-224 -23h-81q-37 0 -53.5 20.5t-16.5 46.5q0 23 17 42t53 19z
M402 368q-16 76 -64 135t-106 59q-47 0 -83.5 -29.5t-36.5 -59.5q0 -107 290 -105zM155 -291q49 65 81 102q60 -44 120 -107q-35 -57 -83 -98q-27 26 -118 103z" />
    <glyph glyph-name="uni06A2.medi" unicode="&#x6a2;" horiz-adv-x="660" 
d="M0 128h17q55 0 161 24q-35 59 -35 152q0 141 90 235q38 41 80.5 67t70.5 26q27 0 58.5 -29t58.5 -82q38 -73 38 -142q0 -117 -67 -233q62 -18 156 -18h32v-128h-29q-146 0 -327 64q-181 -64 -286 -64h-18q-37 0 -53.5 20.5t-16.5 46.5q0 23 17 42t53 19zM326 184
q53 11 105.5 50.5t52.5 69.5q0 42 -24 90q-46 90 -99 90q-55 0 -106 -53.5t-66 -113.5q24 -99 137 -133zM225 -291q49 65 81 102q60 -44 120 -107q-35 -57 -83 -98q-27 26 -118 103z" />
    <glyph glyph-name="uni06A2.fina" unicode="&#x6a2;" horiz-adv-x="1462" 
d="M1134 54q-113 -43 -266.5 -69t-277.5 -26q-222 0 -343 77q-147 94 -147 271q0 131 59 242l40 -17q-29 -87 -29 -152q0 -68 35.5 -126t96.5 -95q107 -64 318 -64q187 0 368 44l-8 13q-35 59 -35 152q0 140 90 235q39 41 81.5 67t69.5 26t58.5 -29.5t58.5 -81.5
q38 -73 38 -142q0 -117 -67 -233q62 -18 156 -18h32v-128h-29q-78 0 -143.5 11t-155.5 43zM1134 178q52 13 102 54t50 72q0 42 -24 90q-46 90 -99 90q-55 0 -106 -53.5t-66 -113.5q25 -103 143 -139zM1044 -291q49 65 81 102q60 -44 120 -107q-35 -57 -83 -98
q-27 26 -118 103z" />
    <glyph glyph-name="uni06A3.init" unicode="&#x6a3;" horiz-adv-x="574" 
d="M0 128h84q151 0 218 20q48 14 83 38.5t35 44.5q0 15 -2 22q-36 -4 -113 -4q-191 0 -240 108q-15 35 -15 72q0 119 75 197q65 67 129 67q117 0 191 -198q42 -111 42 -238q0 -100 -49 -158q-46 -53 -133 -76t-224 -23h-81q-37 0 -53.5 20.5t-16.5 46.5q0 23 17 42t53 19z
M402 368q-16 76 -64 135t-106 59q-47 0 -83.5 -29.5t-36.5 -59.5q0 -107 290 -105zM130 909q49 65 81 102q60 -44 120 -107q-35 -57 -83 -98q-27 26 -118 103zM155 -291q49 65 81 102q60 -44 120 -107q-35 -57 -83 -98q-27 26 -118 103z" />
    <glyph glyph-name="uni06A3.medi" unicode="&#x6a3;" horiz-adv-x="660" 
d="M0 128h17q55 0 161 24q-35 59 -35 152q0 141 90 235q38 41 80.5 67t70.5 26q27 0 58.5 -29t58.5 -82q38 -73 38 -142q0 -117 -67 -233q62 -18 156 -18h32v-128h-29q-146 0 -327 64q-181 -64 -286 -64h-18q-37 0 -53.5 20.5t-16.5 46.5q0 23 17 42t53 19zM326 184
q53 11 105.5 50.5t52.5 69.5q0 42 -24 90q-46 90 -99 90q-55 0 -106 -53.5t-66 -113.5q24 -99 137 -133zM245 869q49 65 81 102q60 -44 120 -107q-35 -57 -83 -98q-27 26 -118 103zM225 -291q49 65 81 102q60 -44 120 -107q-35 -57 -83 -98q-27 26 -118 103z" />
    <glyph glyph-name="uni06A3.fina" unicode="&#x6a3;" horiz-adv-x="1462" 
d="M1134 54q-113 -43 -266.5 -69t-277.5 -26q-222 0 -343 77q-147 94 -147 271q0 131 59 242l40 -17q-29 -87 -29 -152q0 -68 35.5 -126t96.5 -95q107 -64 318 -64q187 0 368 44l-8 13q-35 59 -35 152q0 140 90 235q39 41 81.5 67t69.5 26t58.5 -29.5t58.5 -81.5
q38 -73 38 -142q0 -117 -67 -233q62 -18 156 -18h32v-128h-29q-78 0 -143.5 11t-155.5 43zM1134 178q52 13 102 54t50 72q0 42 -24 90q-46 90 -99 90q-55 0 -106 -53.5t-66 -113.5q25 -103 143 -139zM1024 875q49 65 81 102q60 -44 120 -107q-35 -57 -83 -98
q-27 26 -118 103zM564 -321q49 65 81 102q60 -44 120 -107q-35 -57 -83 -98q-27 26 -118 103z" />
    <glyph glyph-name="uni06A5.init" unicode="&#x6a5;" horiz-adv-x="574" 
d="M0 128h84q151 0 218 20q48 14 83 38.5t35 44.5q0 15 -2 22q-36 -4 -113 -4q-191 0 -240 108q-15 35 -15 72q0 119 75 197q65 67 129 67q117 0 191 -198q42 -111 42 -238q0 -100 -49 -158q-46 -53 -133 -76t-224 -23h-81q-37 0 -53.5 20.5t-16.5 46.5q0 23 17 42t53 19z
M402 368q-16 76 -64 135t-106 59q-47 0 -83.5 -29.5t-36.5 -59.5q0 -107 290 -105zM458 -247q-43 -61 -76 -92q-59 56 -117 104q37 52 79 95q53 -42 114 -107zM265 -260q-43 -61 -76 -92q-59 56 -117 104q37 52 79 95q53 -42 114 -107zM405 -459q-43 -61 -76 -92
q-59 56 -117 104q37 52 79 95q53 -42 114 -107z" />
    <glyph glyph-name="uni06A5.medi" unicode="&#x6a5;" horiz-adv-x="660" 
d="M0 128h17q55 0 161 24q-35 59 -35 152q0 141 90 235q38 41 80.5 67t70.5 26q27 0 58.5 -29t58.5 -82q38 -73 38 -142q0 -117 -67 -233q62 -18 156 -18h32v-128h-29q-146 0 -327 64q-181 -64 -286 -64h-18q-37 0 -53.5 20.5t-16.5 46.5q0 23 17 42t53 19zM326 184
q53 11 105.5 50.5t52.5 69.5q0 42 -24 90q-46 90 -99 90q-55 0 -106 -53.5t-66 -113.5q24 -99 137 -133zM508 -247q-43 -61 -76 -92q-59 56 -117 104q37 52 79 95q53 -42 114 -107zM315 -260q-43 -61 -76 -92q-59 56 -117 104q37 52 79 95q53 -42 114 -107zM455 -459
q-43 -61 -76 -92q-59 56 -117 104q37 52 79 95q53 -42 114 -107z" />
    <glyph glyph-name="uni06A5.fina" unicode="&#x6a5;" horiz-adv-x="1462" 
d="M1134 54q-113 -43 -266.5 -69t-277.5 -26q-222 0 -343 77q-147 94 -147 271q0 131 59 242l40 -17q-29 -87 -29 -152q0 -68 35.5 -126t96.5 -95q107 -64 318 -64q187 0 368 44l-8 13q-35 59 -35 152q0 140 90 235q39 41 81.5 67t69.5 26t58.5 -29.5t58.5 -81.5
q38 -73 38 -142q0 -117 -67 -233q62 -18 156 -18h32v-128h-29q-78 0 -143.5 11t-155.5 43zM1134 178q52 13 102 54t50 72q0 42 -24 90q-46 90 -99 90q-55 0 -106 -53.5t-66 -113.5q25 -103 143 -139zM1317 -247q-43 -61 -76 -92q-59 56 -117 104q37 52 79 95
q53 -42 114 -107zM1124 -260q-43 -61 -76 -92q-59 56 -117 104q37 52 79 95q53 -42 114 -107zM1264 -459q-43 -61 -76 -92q-59 56 -117 104q37 52 79 95q53 -42 114 -107z" />
    <glyph glyph-name="uni06A7.init" unicode="&#x6a7;" horiz-adv-x="574" 
d="M0 128h84q151 0 218 20q48 14 83 38.5t35 44.5q0 15 -2 22q-36 -4 -113 -4q-191 0 -240 108q-15 35 -15 72q0 119 75 197q65 67 129 67q117 0 191 -198q42 -111 42 -238q0 -100 -49 -158q-46 -53 -133 -76t-224 -23h-81q-37 0 -53.5 20.5t-16.5 46.5q0 23 17 42t53 19z
M402 368q-16 76 -64 135t-106 59q-47 0 -83.5 -29.5t-36.5 -59.5q0 -107 290 -105zM130 909q49 65 81 102q60 -44 120 -107q-35 -57 -83 -98q-27 26 -118 103z" />
    <glyph glyph-name="uni06A7.medi" unicode="&#x6a7;" horiz-adv-x="660" 
d="M0 128h17q55 0 161 24q-35 59 -35 152q0 141 90 235q38 41 80.5 67t70.5 26q27 0 58.5 -29t58.5 -82q38 -73 38 -142q0 -117 -67 -233q62 -18 156 -18h32v-128h-29q-146 0 -327 64q-181 -64 -286 -64h-18q-37 0 -53.5 20.5t-16.5 46.5q0 23 17 42t53 19zM326 184
q53 11 105.5 50.5t52.5 69.5q0 42 -24 90q-46 90 -99 90q-55 0 -106 -53.5t-66 -113.5q24 -99 137 -133zM245 869q49 65 81 102q60 -44 120 -107q-35 -57 -83 -98q-27 26 -118 103z" />
    <glyph glyph-name="uni06A7.fina" unicode="&#x6a7;" horiz-adv-x="1050" 
d="M1050 0h-74q0 -61 -16 -124q-6 -24 -27 -55t-47 -54q-82 -73 -191 -120.5t-228 -47.5q-75 0 -142.5 25t-120.5 72t-84.5 119.5t-31.5 161.5q0 155 61 282l42 -11q-34 -100 -34 -166q0 -155 87 -247t226 -92q164 0 321 96q122 86 122 121q0 24 -8 40h-56q-309 0 -309 205
q0 89 51 161q66 96 154 96q71 0 133 -92t82 -242h90v-128zM892 128q-17 89 -70 146q-50 56 -106 56q-41 0 -77 -28.5t-36 -59.5q0 -68 109 -99q56 -15 180 -15zM586 729q49 65 81 102q60 -44 120 -107q-35 -57 -83 -98q-27 26 -118 103z" />
    <glyph glyph-name="uni06A8.init" unicode="&#x6a8;" horiz-adv-x="574" 
d="M0 128h84q151 0 218 20q48 14 83 38.5t35 44.5q0 15 -2 22q-36 -4 -113 -4q-191 0 -240 108q-15 35 -15 72q0 119 75 197q65 67 129 67q117 0 191 -198q42 -111 42 -238q0 -100 -49 -158q-46 -53 -133 -76t-224 -23h-81q-37 0 -53.5 20.5t-16.5 46.5q0 23 17 42t53 19z
M402 368q-16 76 -64 135t-106 59q-47 0 -83.5 -29.5t-36.5 -59.5q0 -107 290 -105zM406 852q-43 -61 -76 -92q-59 56 -117 104q37 52 79 95q53 -42 114 -107zM213 839q-43 -61 -76 -92q-59 56 -117 104q37 52 79 95q53 -42 114 -107zM267 1052q-43 -61 -76 -92
q-59 56 -117 104q37 52 79 95q53 -42 114 -107z" />
    <glyph glyph-name="uni06A8.medi" unicode="&#x6a8;" horiz-adv-x="660" 
d="M0 128h17q55 0 161 24q-35 59 -35 152q0 141 90 235q38 41 80.5 67t70.5 26q27 0 58.5 -29t58.5 -82q38 -73 38 -142q0 -117 -67 -233q62 -18 156 -18h32v-128h-29q-146 0 -327 64q-181 -64 -286 -64h-18q-37 0 -53.5 20.5t-16.5 46.5q0 23 17 42t53 19zM326 184
q53 11 105.5 50.5t52.5 69.5q0 42 -24 90q-46 90 -99 90q-55 0 -106 -53.5t-66 -113.5q24 -99 137 -133zM536 812q-43 -61 -76 -92q-59 56 -117 104q37 52 79 95q53 -42 114 -107zM343 799q-43 -61 -76 -92q-59 56 -117 104q37 52 79 95q53 -42 114 -107zM397 1012
q-43 -61 -76 -92q-59 56 -117 104q37 52 79 95q53 -42 114 -107z" />
    <glyph glyph-name="uni06A8.fina" unicode="&#x6a8;" horiz-adv-x="1050" 
d="M1050 0h-74q0 -61 -16 -124q-6 -24 -27 -55t-47 -54q-82 -73 -191 -120.5t-228 -47.5q-75 0 -142.5 25t-120.5 72t-84.5 119.5t-31.5 161.5q0 155 61 282l42 -11q-34 -100 -34 -166q0 -155 87 -247t226 -92q164 0 321 96q122 86 122 121q0 24 -8 40h-56q-309 0 -309 205
q0 89 51 161q66 96 154 96q71 0 133 -92t82 -242h90v-128zM892 128q-17 89 -70 146q-50 56 -106 56q-41 0 -77 -28.5t-36 -59.5q0 -68 109 -99q56 -15 180 -15zM882 682q-43 -61 -76 -92q-59 56 -117 104q37 52 79 95q53 -42 114 -107zM689 669q-43 -61 -76 -92
q-59 56 -117 104q37 52 79 95q53 -42 114 -107zM743 882q-43 -61 -76 -92q-59 56 -117 104q37 52 79 95q53 -42 114 -107z" />
    <glyph glyph-name="uni06AA.init" unicode="&#x6aa;" horiz-adv-x="1412" 
d="M1331 167l-36 -102q-83 -3 -526.5 -34t-731.5 -31h-37q-37 0 -53.5 20.5t-16.5 46.5q0 23 17 42t53 19h47q323 0 711 24q382 23 498 26q-27 81 -90 122.5t-175 41.5q-94 0 -302 -14q-236 -15 -346 -15q-128 0 -185 35q-65 40 -65 100q0 42 31 115q45 107 164 205
q162 134 240 134q22 0 33 -11.5t11 -43.5q0 -37 -34 -96h-7q-20 12 -38 12q-27 0 -84 -30t-116 -76q-118 -93 -118 -139q0 -38 60 -60t139 -22q155 0 382 15q169 11 232 11q113 0 187 -31.5t126 -98.5q37 -56 37 -110q0 -25 -7 -55z" />
    <glyph glyph-name="uni06AA.medi" unicode="&#x6aa;" horiz-adv-x="1440" 
d="M1440 128v-128h-18q-73 0 -127 65q-83 -3 -526.5 -34t-731.5 -31h-37q-37 0 -53.5 20.5t-16.5 46.5q0 23 17 42t53 19h47q323 0 711 24q382 23 498 26q-27 81 -90 122.5t-175 41.5q-97 0 -311 -14q-229 -15 -337 -15q-128 0 -185 35q-65 40 -65 100q0 42 31 115
q45 107 164 205q162 134 240 134q22 0 33 -11.5t11 -43.5q0 -37 -34 -96h-7q-20 12 -38 12q-27 0 -84 -30t-116 -76q-118 -93 -118 -139q0 -38 60 -60t139 -22q155 0 384 15q167 11 230 11q113 0 187 -31.5t126 -98.5q37 -56 37 -110q0 -25 -7 -55q31 -39 92 -39h17z" />
    <glyph glyph-name="uni06AA.fina" unicode="&#x6aa;" horiz-adv-x="1616" 
d="M424 128q154 0 510 22q382 23 498 26q-27 81 -90 122.5t-175 41.5q-96 0 -308 -14q-231 -15 -340 -15q-128 0 -185 35q-65 40 -65 100q0 42 31 115q45 107 164 205q162 134 240 134q22 0 33 -11.5t11 -43.5q0 -37 -34 -96h-7q-19 12 -38 12q-27 0 -84 -30t-116 -76
q-118 -93 -118 -139q0 -38 60 -60t139 -22q155 0 382 15q169 11 232 11q113 0 187 -31.5t126 -98.5q37 -56 37 -110q0 -25 -7 -55q29 -37 92 -37h17v-128h-18q-75 0 -127 63q-95 -3 -460.5 -33t-567.5 -30q-127 0 -225 15l-149 132l7 15q55 -16 164.5 -25t183.5 -9z" />
    <glyph glyph-name="uni06AB.init" unicode="&#x6ab;" horiz-adv-x="641" 
d="M454 929q50 -37 50 -97q0 -50 -35 -85t-85 -35t-85 35t-35 85q0 19 4 32q-109 -43 -211 -88v-6l163 -63l-24 -50q257 -209 257 -357q0 -141 -64 -207q-105 -93 -349 -93h-40q-37 0 -53.5 20.5t-16.5 46.5q0 23 17 42t53 19h63q183 0 267 52q55 34 55 54q0 56 -69 150
q-85 115 -301 283q-36 27 -36 92q0 28 23 67q20 33 75 61q138 70 538 200l7 -8q-26 -49 -75 -123q-45 -12 -93 -27zM314 832q0 -29 20.5 -49.5t49.5 -20.5t49.5 20.5t20.5 49.5t-20.5 49.5t-49.5 20.5t-49.5 -20.5t-20.5 -49.5z" />
    <glyph glyph-name="uni06AB.medi" unicode="&#x6ab;" horiz-adv-x="770" 
d="M496 928q51 -36 51 -98q0 -50 -35.5 -85t-84.5 -35t-84.5 35t-35.5 85q0 18 4 31q-168 -64 -244 -104v-3q55 -35 154 -78l-30 -50q135 -122 369 -396q44 -52 89.5 -77t103.5 -25h17v-128h-20q-84 0 -140.5 40t-118.5 122q-67 88 -88 111h-4q-2 -273 -372 -273h-27
q-37 0 -53.5 20.5t-16.5 46.5q0 23 17 42t53 19h40q156 0 242 58q49 32 49 49q0 24 -20 68q-50 107 -247 304q-48 50 -63 68q-7 40 -7 55q0 38 27 86q11 20 36 37q126 81 615 234l4 -6q-30 -61 -77 -123q-34 -8 -103 -30zM357 830q0 -29 20.5 -49.5t49.5 -20.5t49.5 20.5
t20.5 49.5t-20.5 49.5t-49.5 20.5t-49.5 -20.5t-20.5 -49.5z" />
    <glyph glyph-name="uni06AB.fina" unicode="&#x6ab;" horiz-adv-x="1405" 
d="M1234 958l-98 -28q51 -36 51 -98q0 -50 -35.5 -85t-84.5 -35t-84.5 35t-35.5 85q0 17 5 35q-152 -58 -250 -110v-3q55 -35 154 -78l-30 -50q135 -122 369 -396q44 -52 89.5 -77t103.5 -25h17v-128h-20q-84 0 -140.5 40t-118.5 122q-67 88 -88 111h-5q-26 -126 -79 -170
q-70 -51 -190 -82.5t-258 -31.5q-406 0 -406 322q0 90 35 178l40 -13q-15 -51 -15 -105q0 -120 94.5 -184.5t273.5 -64.5q124 0 249 31t186 91q0 22 -17 59q-50 107 -247 304q-48 50 -63 68q-7 40 -7 55q0 38 27 86q11 20 36 37q126 81 615 234l4 -6q-31 -61 -77 -123z
M997 832q0 -29 20.5 -49.5t49.5 -20.5t49.5 20.5t20.5 49.5t-20.5 49.5t-49.5 20.5t-49.5 -20.5t-20.5 -49.5z" />
    <glyph glyph-name="uni06AC.init" unicode="&#x6ac;" horiz-adv-x="641" 
d="M615 1084l7 -8q-26 -49 -75 -123q-79 -20 -161 -49q-149 -52 -329 -131v-3l163 -63l-24 -50q257 -209 257 -357q0 -141 -64 -207q-105 -93 -349 -93h-40q-37 0 -53.5 20.5t-16.5 46.5q0 23 17 42t53 19h63q183 0 267 52q55 34 55 54q0 56 -69 150q-85 115 -301 283
q-36 27 -36 92q0 25 23 64q20 33 75 61q138 70 538 200zM5 1130q49 65 81 102q60 -44 120 -107q-35 -57 -83 -98q-27 26 -118 103z" />
    <glyph glyph-name="uni06AC.medi" unicode="&#x6ac;" horiz-adv-x="770" 
d="M770 128v-128h-20q-84 0 -140.5 40t-118.5 122q-67 88 -88 111h-4q-2 -273 -372 -273h-27q-37 0 -53.5 20.5t-16.5 46.5q0 23 17 42t53 19h40q156 0 242 58q49 32 49 49q0 24 -20 68q-50 107 -247 304q-48 50 -63 68q-7 40 -7 55q0 38 27 86q11 20 36 37q126 81 615 234
l4 -6q-30 -61 -77 -123q-79 -20 -229 -74q-216 -81 -303 -127v-3q55 -35 154 -78l-30 -50q135 -122 369 -396q44 -52 89.5 -77t103.5 -25h17zM5 1130q49 65 81 102q60 -44 120 -107q-35 -57 -83 -98q-27 26 -118 103z" />
    <glyph glyph-name="uni06AC.fina" unicode="&#x6ac;" horiz-adv-x="1091" 
d="M900 1038l7 -3q15 -255 15 -629q0 -148 39 -216q16 -29 46 -45.5t65 -16.5h19v-128h-23q-163 0 -205 184h-5q-40 -65 -140 -115q-138 -69 -311 -69q-58 0 -110.5 18t-97.5 54t-72 99t-27 146q0 109 55 217l43 -15q-35 -78 -35 -146q0 -115 74.5 -175.5t197.5 -60.5
q152 0 284 67q85 42 112 87q5 18 5 55q0 235 -32 595q45 53 96 97zM594 702h-4l-10 5q-89 -35 -108 -97h79q101 0 101 -77q0 -69 -55 -106t-128 -37q-41 0 -65 5l-66 39v7q99 3 178 25.5t79 50.5q0 7 -17 8.5t-73 1.5q-53 0 -70.5 2t-17.5 11l-1 39q-1 58 64 138
q29 34 61 57t51 23q23 0 23 -23q0 -13 -21 -72zM734 1210q49 65 81 102q60 -44 120 -107q-35 -57 -83 -98q-27 26 -118 103z" />
    <glyph glyph-name="uni06AE.init" unicode="&#x6ae;" horiz-adv-x="641" 
d="M615 1084l7 -8q-26 -49 -75 -123q-79 -20 -161 -49q-149 -52 -329 -131v-3l163 -63l-24 -50q257 -209 257 -357q0 -141 -64 -207q-105 -93 -349 -93h-40q-37 0 -53.5 20.5t-16.5 46.5q0 23 17 42t53 19h63q183 0 267 52q55 34 55 54q0 56 -69 150q-85 115 -301 283
q-36 27 -36 92q0 25 23 64q20 33 75 61q138 70 538 200zM408 -247q-43 -61 -76 -92q-59 56 -117 104q37 52 79 95q53 -42 114 -107zM215 -260q-43 -61 -76 -92q-59 56 -117 104q37 52 79 95q53 -42 114 -107zM355 -459q-43 -61 -76 -92q-59 56 -117 104q37 52 79 95
q53 -42 114 -107z" />
    <glyph glyph-name="uni06AE.medi" unicode="&#x6ae;" horiz-adv-x="770" 
d="M770 128v-128h-20q-84 0 -140.5 40t-118.5 122q-67 88 -88 111h-4q-2 -273 -372 -273h-27q-37 0 -53.5 20.5t-16.5 46.5q0 23 17 42t53 19h40q156 0 242 58q49 32 49 49q0 24 -20 68q-50 107 -247 304q-48 50 -63 68q-7 40 -7 55q0 38 27 86q11 20 36 37q126 81 615 234
l4 -6q-30 -61 -77 -123q-79 -20 -229 -74q-216 -81 -303 -127v-3q55 -35 154 -78l-30 -50q135 -122 369 -396q44 -52 89.5 -77t103.5 -25h17zM488 -247q-43 -61 -76 -92q-59 56 -117 104q37 52 79 95q53 -42 114 -107zM295 -260q-43 -61 -76 -92q-59 56 -117 104
q37 52 79 95q53 -42 114 -107zM435 -459q-43 -61 -76 -92q-59 56 -117 104q37 52 79 95q53 -42 114 -107z" />
    <glyph glyph-name="uni06AE.fina" unicode="&#x6ae;" horiz-adv-x="1091" 
d="M900 1038l7 -3q15 -255 15 -629q0 -148 39 -216q16 -29 46 -45.5t65 -16.5h19v-128h-23q-163 0 -205 184h-5q-40 -65 -140 -115q-138 -69 -311 -69q-58 0 -110.5 18t-97.5 54t-72 99t-27 146q0 109 55 217l43 -15q-35 -78 -35 -146q0 -115 74.5 -175.5t197.5 -60.5
q152 0 284 67q85 42 112 87q5 18 5 55q0 235 -32 595q45 53 96 97zM594 702h-4l-10 5q-89 -35 -108 -97h79q101 0 101 -77q0 -69 -55 -106t-128 -37q-41 0 -65 5l-66 39v7q99 3 178 25.5t79 50.5q0 7 -17 8.5t-73 1.5q-53 0 -70.5 2t-17.5 11l-1 39q-1 58 64 138
q29 34 61 57t51 23q23 0 23 -23q0 -13 -21 -72zM697 -237q-43 -61 -76 -92q-59 56 -117 104q37 52 79 95q53 -42 114 -107zM504 -250q-43 -61 -76 -92q-59 56 -117 104q37 52 79 95q53 -42 114 -107zM644 -449q-43 -61 -76 -92q-59 56 -117 104q37 52 79 95q53 -42 114 -107
z" />
    <glyph glyph-name="uni06B0.init" unicode="&#x6b0;" horiz-adv-x="641" 
d="M480 895q49 -36 49 -97q0 -50 -35.5 -85t-84.5 -35t-84.5 35t-35.5 85q0 19 4 32q-162 -62 -240 -97v-7l167 -47l-24 -49q129 -96 192.5 -175t63.5 -155q0 -142 -63 -207q-105 -93 -349 -93h-40q-37 0 -53.5 20.5t-16.5 46.5q0 23 17 42t53 19h63q183 0 267 52
q55 34 55 54q0 66 -76 153q-35 39 -104.5 95.5t-196.5 151.5q-29 22 -29 85q0 25 23 64q11 25 75 58q138 70 538 200l4 -4q-40 -74 -72 -123q-44 -12 -67 -19zM33 902l-5 2q20 53 26 64q202 96 521 191l2 -2l-34 -59q-342 -109 -510 -196zM339 799q0 -29 20.5 -49.5
t49.5 -20.5t49.5 20.5t20.5 49.5t-20.5 49.5t-49.5 20.5t-49.5 -20.5t-20.5 -49.5z" />
    <glyph glyph-name="uni06B0.medi" unicode="&#x6b0;" horiz-adv-x="770" 
d="M604 916l-102 -30q51 -37 51 -97q0 -49 -35.5 -84.5t-84.5 -35.5t-84.5 35.5t-35.5 84.5q0 10 4 30q-188 -73 -248 -105v-2q29 -17 162 -69l-31 -53q201 -176 359 -360q87 -102 194 -102h17v-128h-20q-84 0 -140.5 40t-118.5 122q-67 88 -88 111h-4q-2 -273 -372 -273
h-27q-37 0 -53.5 20.5t-16.5 46.5q0 23 17 42t53 19h40q156 0 242 58q49 32 49 49q0 24 -20 68q-12 26 -29 51t-43.5 54t-45.5 48.5t-58.5 58t-60.5 59.5q-11 12 -36 36t-33 33q-5 28 -5 46q0 38 27 86q7 12 36 32q125 81 609 232l3 -4q-37 -73 -71 -119zM52 887l-5 2
q7 30 24 65q189 92 548 199l1 -3l-37 -61q-338 -105 -531 -202zM363 788q0 -29 20.5 -49.5t49.5 -20.5t49.5 20.5t20.5 49.5t-20.5 49.5t-49.5 20.5t-49.5 -20.5t-20.5 -49.5z" />
    <glyph glyph-name="uni06B0.fina" unicode="&#x6b0;" horiz-adv-x="1402" 
d="M684 887l-5 2q7 30 24 65q189 92 548 199l1 -3l-37 -61q-338 -105 -531 -202zM1146 890q50 -37 50 -97q0 -49 -35 -84.5t-85 -35.5t-85 35.5t-35 84.5q0 19 4 32q-170 -65 -259 -111v-2q29 -17 162 -69l-31 -53q201 -176 359 -360q87 -102 194 -102h17v-128h-20
q-84 0 -140.5 40t-118.5 122q-67 88 -88 111h-2q-26 -126 -79 -170q-70 -51 -190 -82.5t-258 -31.5q-406 0 -406 322q0 90 35 178l40 -13q-15 -51 -15 -105q0 -120 94.5 -184.5t273.5 -64.5q124 0 249 31t186 91q-2 17 -20 59q-12 26 -29 51t-43.5 54t-45.5 48.5t-58.5 58
t-60.5 59.5q-11 12 -36 36t-33 33q-5 28 -5 46q0 38 27 86q7 12 36 32q125 81 609 232l3 -4q-37 -73 -71 -119q-62 -17 -90 -26zM1006 792q0 -29 20.5 -49.5t49.5 -20.5t49.5 20.5t20.5 49.5t-20.5 49.5t-49.5 20.5t-49.5 -20.5t-20.5 -49.5z" />
    <glyph glyph-name="uni06B2.init" unicode="&#x6b2;" horiz-adv-x="641" 
d="M615 1041l4 -4q-40 -74 -72 -123q-79 -20 -161 -49q-157 -55 -333 -132v-7l167 -47l-24 -49q129 -96 192.5 -175t63.5 -155q0 -142 -63 -207q-105 -93 -349 -93h-40q-37 0 -53.5 20.5t-16.5 46.5q0 23 17 42t53 19h63q183 0 267 52q55 34 55 54q0 66 -76 153
q-35 39 -104.5 95.5t-196.5 151.5q-29 22 -29 85q0 25 23 64q11 25 75 58q138 70 538 200zM33 902l-5 2q20 53 26 64q202 96 521 191l2 -2l-34 -59q-342 -109 -510 -196zM211 -307q-43 -61 -76 -92q-59 56 -117 104q37 52 79 95q53 -42 114 -107zM404 -294q-43 -61 -76 -92
q-59 56 -117 104q37 52 79 95q53 -42 114 -107z" />
    <glyph glyph-name="uni06B2.medi" unicode="&#x6b2;" horiz-adv-x="770" 
d="M770 128v-128h-20q-84 0 -140.5 40t-118.5 122q-67 88 -88 111h-4q-2 -273 -372 -273h-27q-37 0 -53.5 20.5t-16.5 46.5q0 23 17 42t53 19h40q156 0 242 58q49 32 49 49q0 24 -20 68q-12 26 -29 51t-43.5 54t-45.5 48.5t-58.5 58t-60.5 59.5q-11 12 -36 36t-33 33
q-5 28 -5 46q0 38 27 86q7 12 36 32q125 81 609 232l3 -4q-37 -73 -71 -119q-75 -19 -228 -74q-223 -84 -307 -128v-2q29 -17 162 -69l-31 -53q201 -176 359 -360q87 -102 194 -102h17zM52 887l-5 2q7 30 24 65q189 92 548 199l1 -3l-37 -61q-338 -105 -531 -202zM341 -307
q-43 -61 -76 -92q-59 56 -117 104q37 52 79 95q53 -42 114 -107zM534 -294q-43 -61 -76 -92q-59 56 -117 104q37 52 79 95q53 -42 114 -107z" />
    <glyph glyph-name="uni06B2.fina" unicode="&#x6b2;" horiz-adv-x="1402" 
d="M684 887l-5 2q7 30 24 65q189 92 548 199l1 -3l-37 -61q-338 -105 -531 -202zM963 244q-2 17 -20 59q-12 26 -29 51t-43.5 54t-45.5 48.5t-58.5 58t-60.5 59.5q-11 12 -36 36t-33 33q-5 28 -5 46q0 38 27 86q7 12 36 32q125 81 609 232l3 -4q-37 -73 -71 -119
q-75 -19 -228 -74q-223 -84 -307 -128v-2q29 -17 162 -69l-31 -53q201 -176 359 -360q87 -102 194 -102h17v-128h-20q-84 0 -140.5 40t-118.5 122q-67 88 -88 111h-2q-26 -126 -79 -170q-70 -51 -190 -82.5t-258 -31.5q-406 0 -406 322q0 90 35 178l40 -13q-15 -51 -15 -105
q0 -120 94.5 -184.5t273.5 -64.5q124 0 249 31t186 91zM581 -307q-43 -61 -76 -92q-59 56 -117 104q37 52 79 95q53 -42 114 -107zM774 -294q-43 -61 -76 -92q-59 56 -117 104q37 52 79 95q53 -42 114 -107z" />
    <glyph glyph-name="uni06B4.init" unicode="&#x6b4;" horiz-adv-x="641" 
d="M615 1041l4 -4q-40 -74 -72 -123q-79 -20 -161 -49q-157 -55 -333 -132v-7l167 -47l-24 -49q129 -96 192.5 -175t63.5 -155q0 -142 -63 -207q-105 -93 -349 -93h-40q-37 0 -53.5 20.5t-16.5 46.5q0 23 17 42t53 19h63q183 0 267 52q55 34 55 54q0 66 -76 153
q-35 39 -104.5 95.5t-196.5 151.5q-29 22 -29 85q0 25 23 64q11 25 75 58q138 70 538 200zM33 902l-5 2q20 53 26 64q202 96 521 191l2 -2l-34 -59q-342 -109 -510 -196zM134 1177q-41 -58 -71 -86q-66 61 -110 98q30 41 74 89q52 -40 107 -101zM321 1196q-46 -63 -72 -86
q-52 51 -110 98q39 53 75 89q50 -40 107 -101zM186 1370q-41 -58 -71 -86q-66 61 -110 98q30 41 74 89q52 -40 107 -101z" />
    <glyph glyph-name="uni06B4.medi" unicode="&#x6b4;" horiz-adv-x="770" 
d="M770 128v-128h-20q-84 0 -140.5 40t-118.5 122q-67 88 -88 111h-4q-2 -273 -372 -273h-27q-37 0 -53.5 20.5t-16.5 46.5q0 23 17 42t53 19h40q156 0 242 58q49 32 49 49q0 24 -20 68q-12 26 -29 51t-43.5 54t-45.5 48.5t-58.5 58t-60.5 59.5q-11 12 -36 36t-33 33
q-5 28 -5 46q0 38 27 86q7 12 36 32q125 81 609 232l3 -4q-37 -73 -71 -119q-75 -19 -228 -74q-223 -84 -307 -128v-2q29 -17 162 -69l-31 -53q201 -176 359 -360q87 -102 194 -102h17zM52 887l-5 2q7 30 24 65q189 92 548 199l1 -3l-37 -61q-338 -105 -531 -202zM144 1177
q-41 -58 -71 -86q-66 61 -110 98q30 41 74 89q52 -40 107 -101zM331 1196q-46 -63 -72 -86q-52 51 -110 98q39 53 75 89q50 -40 107 -101zM196 1370q-41 -58 -71 -86q-66 61 -110 98q30 41 74 89q52 -40 107 -101z" />
    <glyph glyph-name="uni06B4.fina" unicode="&#x6b4;" horiz-adv-x="1402" 
d="M684 887l-5 2q7 30 24 65q189 92 548 199l1 -3l-37 -61q-338 -105 -531 -202zM963 244q-2 17 -20 59q-12 26 -29 51t-43.5 54t-45.5 48.5t-58.5 58t-60.5 59.5q-11 12 -36 36t-33 33q-5 28 -5 46q0 38 27 86q7 12 36 32q125 81 609 232l3 -4q-37 -73 -71 -119
q-75 -19 -228 -74q-223 -84 -307 -128v-2q29 -17 162 -69l-31 -53q201 -176 359 -360q87 -102 194 -102h17v-128h-20q-84 0 -140.5 40t-118.5 122q-67 88 -88 111h-2q-26 -126 -79 -170q-70 -51 -190 -82.5t-258 -31.5q-406 0 -406 322q0 90 35 178l40 -13q-15 -51 -15 -105
q0 -120 94.5 -184.5t273.5 -64.5q124 0 249 31t186 91zM764 1177q-41 -58 -71 -86q-66 61 -110 98q30 41 74 89q52 -40 107 -101zM951 1196q-46 -63 -72 -86q-52 51 -110 98q39 53 75 89q50 -40 107 -101zM816 1370q-41 -58 -71 -86q-66 61 -110 98q30 41 74 89
q52 -40 107 -101z" />
    <glyph glyph-name="uni06B5.init" unicode="&#x6b5;" horiz-adv-x="388" 
d="M0 128h22q62 0 112 27q53 30 53 108q-3 270 -25 519q-10 115 -10 125q0 34 30 67q21 26 55 55l7 -5q-3 -90 81 -229q-27 -25 -63 -51q9 -259 9 -347q0 -168 -40 -251q-37 -89 -91 -116q-58 -30 -125 -30h-15q-37 0 -53.5 20.5t-16.5 46.5q0 23 17 42t53 19zM336 1408
q15 -34 23 -75q-134 -153 -150 -212l-19 -10q-10 60 -175 195l23 97h8q121 -119 154 -176h3q29 61 133 181z" />
    <glyph glyph-name="uni06B5.medi" unicode="&#x6b5;" horiz-adv-x="430" 
d="M0 128h20q59 0 116 31q48 27 48 120q0 212 -26 611l-3 50l89 90l5 -2q20 -247 20 -786q0 -43 35 -78.5t113 -35.5h13v-128h-21q-149 0 -195 106h-4q-25 -46 -74.5 -76t-118.5 -30h-17q-37 0 -53.5 20.5t-16.5 46.5q0 23 17 42t53 19zM336 1408q15 -34 23 -75
q-134 -153 -150 -212l-19 -10q-10 60 -175 195l23 97h8q121 -119 154 -176h3q29 61 133 181z" />
    <glyph glyph-name="uni06B5.fina" unicode="&#x6b5;" horiz-adv-x="907" 
d="M726 992l8 -5q14 -432 14 -703q0 -36 14.5 -73.5t35.5 -54.5q34 -27 98 -28h11v-128h-19q-111 0 -157 75h-4q-13 -92 -35 -149q-41 -66 -115 -113q-94 -62 -208 -62q-133 0 -208 86q-71 82 -71 226q0 111 67 252l36 -14q-42 -96 -42 -174q0 -89 51 -155q62 -81 173 -81
q89 0 173 47q82 45 109 95q7 39 7 66q0 273 -30 805q51 56 92 88zM806 1378q15 -34 23 -75q-134 -153 -150 -212l-19 -10q-10 60 -175 195l23 97h8q121 -119 154 -176h3q29 61 133 181z" />
    <glyph glyph-name="uni06B6.init" unicode="&#x6b6;" horiz-adv-x="388" 
d="M0 128h22q62 0 112 27q53 30 53 108q-3 270 -25 519q-10 115 -10 125q0 34 30 67q21 26 55 55l7 -5q-3 -90 81 -229q-27 -25 -63 -51q9 -259 9 -347q0 -168 -40 -251q-37 -89 -91 -116q-58 -30 -125 -30h-15q-37 0 -53.5 20.5t-16.5 46.5q0 23 17 42t53 19zM75 1240
q49 65 81 102q60 -44 120 -107q-35 -57 -83 -98q-27 26 -118 103z" />
    <glyph glyph-name="uni06B6.medi" unicode="&#x6b6;" horiz-adv-x="430" 
d="M0 128h20q59 0 116 31q48 27 48 120q0 212 -26 611l-3 50l89 90l5 -2q20 -247 20 -786q0 -43 35 -78.5t113 -35.5h13v-128h-21q-149 0 -195 106h-4q-25 -46 -74.5 -76t-118.5 -30h-17q-37 0 -53.5 20.5t-16.5 46.5q0 23 17 42t53 19zM75 1240q49 65 81 102
q60 -44 120 -107q-35 -57 -83 -98q-27 26 -118 103z" />
    <glyph glyph-name="uni06B6.fina" unicode="&#x6b6;" horiz-adv-x="907" 
d="M726 992l8 -5q14 -432 14 -703q0 -36 14.5 -73.5t35.5 -54.5q34 -27 98 -28h11v-128h-19q-111 0 -157 75h-4q-13 -92 -35 -149q-41 -66 -115 -113q-94 -62 -208 -62q-133 0 -208 86q-71 82 -71 226q0 111 67 252l36 -14q-42 -96 -42 -174q0 -89 51 -155q62 -81 173 -81
q89 0 173 47q82 45 109 95q7 39 7 66q0 273 -30 805q51 56 92 88zM552 1210q49 65 81 102q60 -44 120 -107q-35 -57 -83 -98q-27 26 -118 103z" />
    <glyph glyph-name="uni06B7.init" unicode="&#x6b7;" horiz-adv-x="388" 
d="M0 128h22q62 0 112 27q53 30 53 108q-3 270 -25 519q-10 115 -10 125q0 34 30 67q21 26 55 55l7 -5q-3 -90 81 -229q-27 -25 -63 -51q9 -259 9 -347q0 -168 -40 -251q-37 -89 -91 -116q-58 -30 -125 -30h-15q-37 0 -53.5 20.5t-16.5 46.5q0 23 17 42t53 19zM189 1137
q-41 -58 -71 -86q-66 61 -110 98q30 41 74 89q52 -40 107 -101zM376 1149q-46 -63 -72 -86q-52 51 -110 98q39 53 75 89q50 -40 107 -101zM241 1330q-41 -58 -71 -86q-66 61 -110 98q30 41 74 89q52 -40 107 -101z" />
    <glyph glyph-name="uni06B7.medi" unicode="&#x6b7;" horiz-adv-x="430" 
d="M0 128h20q59 0 116 31q48 27 48 120q0 212 -26 611l-3 50l89 90l5 -2q20 -247 20 -786q0 -43 35 -78.5t113 -35.5h13v-128h-21q-149 0 -195 106h-4q-25 -46 -74.5 -76t-118.5 -30h-17q-37 0 -53.5 20.5t-16.5 46.5q0 23 17 42t53 19zM189 1137q-41 -58 -71 -86
q-66 61 -110 98q30 41 74 89q52 -40 107 -101zM376 1149q-46 -63 -72 -86q-52 51 -110 98q39 53 75 89q50 -40 107 -101zM241 1330q-41 -58 -71 -86q-66 61 -110 98q30 41 74 89q52 -40 107 -101z" />
    <glyph glyph-name="uni06B7.fina" unicode="&#x6b7;" horiz-adv-x="907" 
d="M726 992l8 -5q14 -432 14 -703q0 -36 14.5 -73.5t35.5 -54.5q34 -27 98 -28h11v-128h-19q-111 0 -157 75h-4q-13 -92 -35 -149q-41 -66 -115 -113q-94 -62 -208 -62q-133 0 -208 86q-71 82 -71 226q0 111 67 252l36 -14q-42 -96 -42 -174q0 -89 51 -155q62 -81 173 -81
q89 0 173 47q82 45 109 95q7 39 7 66q0 273 -30 805q51 56 92 88zM661 1127q-41 -58 -71 -86q-66 61 -110 98q30 41 74 89q52 -40 107 -101zM848 1139q-46 -63 -72 -86q-52 51 -110 98q39 53 75 89q50 -40 107 -101zM713 1320q-41 -58 -71 -86q-66 61 -110 98q30 41 74 89
q52 -40 107 -101z" />
    <glyph glyph-name="uni06B8.init" unicode="&#x6b8;" horiz-adv-x="419" 
d="M0 128h22q62 0 112 27q53 30 53 108q-3 270 -25 519q-10 115 -10 125q0 34 30 67q21 26 55 55l7 -5q-3 -90 81 -229q-27 -25 -63 -51q9 -259 9 -347q0 -168 -40 -251q-37 -89 -91 -116q-58 -30 -125 -30h-15q-37 0 -53.5 20.5t-16.5 46.5q0 23 17 42t53 19zM378 -247
q-43 -61 -76 -92q-59 56 -117 104q37 52 79 95q53 -42 114 -107zM185 -260q-43 -61 -76 -92q-59 56 -117 104q37 52 79 95q53 -42 114 -107zM325 -459q-43 -61 -76 -92q-59 56 -117 104q37 52 79 95q53 -42 114 -107z" />
    <glyph glyph-name="uni06B8.medi" unicode="&#x6b8;" horiz-adv-x="430" 
d="M0 128h20q59 0 116 31q48 27 48 120q0 212 -26 611l-3 50l89 90l5 -2q20 -247 20 -786q0 -43 35 -78.5t113 -35.5h13v-128h-21q-149 0 -195 106h-4q-25 -46 -74.5 -76t-118.5 -30h-17q-37 0 -53.5 20.5t-16.5 46.5q0 23 17 42t53 19zM388 -247q-43 -61 -76 -92
q-59 56 -117 104q37 52 79 95q53 -42 114 -107zM195 -260q-43 -61 -76 -92q-59 56 -117 104q37 52 79 95q53 -42 114 -107zM335 -459q-43 -61 -76 -92q-59 56 -117 104q37 52 79 95q53 -42 114 -107z" />
    <glyph glyph-name="uni06B8.fina" unicode="&#x6b8;" horiz-adv-x="907" 
d="M726 992l8 -5q14 -432 14 -703q0 -36 14.5 -73.5t35.5 -54.5q34 -27 98 -28h11v-128h-19q-111 0 -157 75h-4q-13 -92 -35 -149q-41 -66 -115 -113q-94 -62 -208 -62q-133 0 -208 86q-71 82 -71 226q0 111 67 252l36 -14q-42 -96 -42 -174q0 -89 51 -155q62 -81 173 -81
q89 0 173 47q82 45 109 95q7 39 7 66q0 273 -30 805q51 56 92 88zM615 -437q-43 -61 -76 -92q-59 56 -117 104q37 52 79 95q53 -42 114 -107zM422 -450q-43 -61 -76 -92q-59 56 -117 104q37 52 79 95q53 -42 114 -107zM562 -649q-43 -61 -76 -92q-59 56 -117 104
q37 52 79 95q53 -42 114 -107z" />
    <glyph glyph-name="uni06B9.init" unicode="&#x6b9;" horiz-adv-x="433" 
d="M0 128h17q145 0 197 19q57 21 57 44q0 51 -100 247q37 66 75 113h5q100 -176 100 -305q0 -93 -70 -186q-34 -34 -93.5 -47t-175.5 -13h-12q-37 0 -53.5 20.5t-16.5 46.5q0 23 17 42t53 19zM75 770q49 65 81 102q60 -44 120 -107q-35 -57 -83 -98q-27 26 -118 103z
M125 -291q49 65 81 102q60 -44 120 -107q-35 -57 -83 -98q-27 26 -118 103z" />
    <glyph glyph-name="uni06B9.medi" unicode="&#x6b9;" horiz-adv-x="451" 
d="M115 630q49 65 81 102q60 -44 120 -107q-35 -57 -83 -98q-27 26 -118 103zM0 128h22q61 0 111 23.5t61 64.5l29 108l69 50l6 -7q-22 -80 -22 -116q0 -57 33 -83q49 -40 124 -40h18v-128h-23q-160 0 -206 102h-4q-25 -49 -79 -75.5t-120 -26.5h-19q-37 0 -53.5 20.5
t-16.5 46.5q0 23 17 42t53 19zM125 -291q49 65 81 102q60 -44 120 -107q-35 -57 -83 -98q-27 26 -118 103z" />
    <glyph glyph-name="uni06B9.fina" unicode="&#x6b9;" horiz-adv-x="965" 
d="M682 422h8q48 -95 81 -192q20 -62 60.5 -82t119.5 -20h14v-128h-21q-88 0 -143 45h-3q-4 -72 -22 -137t-40 -94q-52 -67 -151 -114.5t-188 -47.5q-140 0 -223.5 84t-83.5 219q0 149 86 291l38 -21q-25 -47 -40.5 -99.5t-15.5 -87.5q0 -114 67 -174q30 -29 82 -48t107 -19
q59 0 126.5 24.5t115.5 62.5q73 56 73 103q0 62 -36 166q-45 105 -79 163q35 62 68 106zM371 625q49 65 81 102q60 -44 120 -107q-35 -57 -83 -98q-27 26 -118 103zM321 -581q49 65 81 102q60 -44 120 -107q-35 -57 -83 -98q-27 26 -118 103z" />
    <glyph glyph-name="uni06BC.init" unicode="&#x6bc;" horiz-adv-x="433" 
d="M273 52q30 -16 48 -45.5t18 -64.5q0 -52 -36.5 -88.5t-88.5 -36.5t-88.5 36.5t-36.5 88.5q0 33 16 62q-54 -4 -93 -4h-12q-37 0 -53.5 20.5t-16.5 46.5q0 23 17 42t53 19h17q145 0 197 19q57 21 57 44q0 51 -100 247q37 66 75 113h5q100 -176 100 -305q0 -100 -78 -194z
M139 -58q0 -31 22 -53t53 -22t53 22t22 53t-22 53t-53 22t-53 -22t-22 -53zM75 770q49 65 81 102q60 -44 120 -107q-35 -57 -83 -98q-27 26 -118 103z" />
    <glyph glyph-name="uni06BC.medi" unicode="&#x6bc;" horiz-adv-x="581" 
d="M264 24q43 -36 43 -92q0 -50 -35.5 -85t-84.5 -35t-84.5 35t-35.5 85q0 37 21 68h-88q-37 0 -53.5 20.5t-16.5 46.5q0 23 17 42t53 19h152q61 0 111 23.5t61 64.5l29 108l69 50l6 -7q-22 -80 -22 -116q0 -57 33 -83q49 -40 124 -40h18v-128h-23q-160 0 -206 102h-4
q-27 -52 -84 -78zM225 630q49 65 81 102q60 -44 120 -107q-35 -57 -83 -98q-27 26 -118 103zM112 -68q0 -31 22 -53t53 -22t53 22t22 53t-22 53t-53 22t-53 -22t-22 -53z" />
    <glyph glyph-name="uni06BC.fina" unicode="&#x6bc;" horiz-adv-x="965" 
d="M662 -255q36 -14 58.5 -46.5t22.5 -73.5q0 -54 -38 -92t-92 -38t-92 38t-38 92q0 23 7 43q-64 -16 -93 -16q-140 0 -223.5 84t-83.5 219q0 149 86 291l38 -21q-25 -47 -40.5 -99.5t-15.5 -87.5q0 -114 67 -174q30 -29 82 -48t107 -19q59 0 126.5 24.5t115.5 62.5
q73 56 73 103q0 62 -36 166q-45 105 -79 163q35 62 68 106h8q48 -95 81 -192q20 -62 60.5 -82t119.5 -20h14v-128h-21q-88 0 -143 45h-3q-4 -72 -22 -137t-40 -94q-26 -34 -74 -69zM371 625q49 65 81 102q60 -44 120 -107q-35 -57 -83 -98q-27 26 -118 103zM533 -376
q0 -33 23.5 -56.5t56.5 -23.5t56.5 23.5t23.5 56.5t-23.5 56.5t-56.5 23.5t-56.5 -23.5t-23.5 -56.5z" />
    <glyph glyph-name="uni06BD.init" unicode="&#x6bd;" horiz-adv-x="441" 
d="M0 128h17q145 0 197 19q57 21 57 44q0 51 -100 247q37 66 75 113h5q100 -176 100 -305q0 -93 -70 -186q-34 -34 -93.5 -47t-175.5 -13h-12q-37 0 -53.5 20.5t-16.5 46.5q0 23 17 42t53 19zM168 729q-43 -61 -76 -92q-59 56 -117 104q37 52 79 95q53 -42 114 -107z
M222 942q-43 -61 -76 -92q-59 56 -117 104q37 52 79 95q53 -42 114 -107zM361 742q-43 -61 -76 -92q-59 56 -117 104q37 52 79 95q53 -42 114 -107z" />
    <glyph glyph-name="uni06BD.medi" unicode="&#x6bd;" horiz-adv-x="451" 
d="M262 812q-43 -61 -76 -92q-59 56 -117 104q37 52 79 95q53 -42 114 -107zM208 599q-43 -61 -76 -92q-59 56 -117 104q37 52 79 95q53 -42 114 -107zM401 612q-43 -61 -76 -92q-59 56 -117 104q37 52 79 95q53 -42 114 -107zM0 128h22q61 0 111 23.5t61 64.5l29 108l69 50
l6 -7q-22 -80 -22 -116q0 -57 33 -83q49 -40 124 -40h18v-128h-23q-160 0 -206 102h-4q-25 -49 -79 -75.5t-120 -26.5h-19q-37 0 -53.5 20.5t-16.5 46.5q0 23 17 42t53 19z" />
    <glyph glyph-name="uni06BD.fina" unicode="&#x6bd;" horiz-adv-x="965" 
d="M682 422h8q48 -95 81 -192q20 -62 60.5 -82t119.5 -20h14v-128h-21q-88 0 -143 45h-3q-4 -72 -22 -137t-40 -94q-52 -67 -151 -114.5t-188 -47.5q-140 0 -223.5 84t-83.5 219q0 149 86 291l38 -21q-25 -47 -40.5 -99.5t-15.5 -87.5q0 -114 67 -174q30 -29 82 -48t107 -19
q59 0 126.5 24.5t115.5 62.5q73 56 73 103q0 62 -36 166q-45 105 -79 163q35 62 68 106zM444 639q-43 -61 -76 -92q-59 56 -117 104q37 52 79 95q53 -42 114 -107zM498 852q-43 -61 -76 -92q-59 56 -117 104q37 52 79 95q53 -42 114 -107zM637 652q-43 -61 -76 -92
q-59 56 -117 104q37 52 79 95q53 -42 114 -107z" />
    <glyph glyph-name="uni06BF.init" unicode="&#x6bf;" horiz-adv-x="935" 
d="M0 128h61q233 0 534 181l1 4q-189 70 -314 70q-83 0 -127 -50l12 -50l-30 -90h-10l-49 132q6 82 66 131t151 49q113 0 328 -87q77 -31 171 -32l81 1l3 -2l-53 -105q-111 3 -173 -37l-167 -109q-206 -134 -433 -134h-52q-37 0 -53.5 20.5t-16.5 46.5q0 23 17 42t53 19z
M594 -199q-43 -61 -76 -92q-59 56 -117 104q37 52 79 95q53 -42 114 -107zM401 -212q-43 -61 -76 -92q-59 56 -117 104q37 52 79 95q53 -42 114 -107zM541 -411q-43 -61 -76 -92q-59 56 -117 104q37 52 79 95q53 -42 114 -107zM265 749q49 65 81 102q60 -44 120 -107
q-35 -57 -83 -98q-27 26 -118 103z" />
    <glyph glyph-name="uni06BF.medi" unicode="&#x6bf;" horiz-adv-x="915" 
d="M595 309l1 4q-189 70 -314 70q-83 0 -127 -50l12 -50l-30 -90h-10l-49 132q6 82 66 131t151 49q112 0 328 -86q83 -33 171 -33h87l2 -2l-62 -103q-109 0 -169 -38l-167 -109q-209 -134 -439 -134h-46q-37 0 -53.5 20.5t-16.5 46.5q0 23 17 42t53 19h61q233 0 534 181z
M672 221l36 24l3 -1q5 -116 177 -116h27v-128h-31q-215 0 -215 165q0 28 3 56zM594 -199q-43 -61 -76 -92q-59 56 -117 104q37 52 79 95q53 -42 114 -107zM401 -212q-43 -61 -76 -92q-59 56 -117 104q37 52 79 95q53 -42 114 -107zM541 -411q-43 -61 -76 -92
q-59 56 -117 104q37 52 79 95q53 -42 114 -107zM265 749q49 65 81 102q60 -44 120 -107q-35 -57 -83 -98q-27 26 -118 103z" />
    <glyph glyph-name="uni06BF.fina" unicode="&#x6bf;" horiz-adv-x="939" 
d="M561 324l-1 3q-86 32 -147 44t-131 12q-83 0 -127 -50l20 -84l-28 -79l-11 -3l-58 158q6 82 66 131t151 49q113 0 328 -87q82 -31 171 -32l88 1l1 -2l-60 -101q-46 -5 -134.5 -28t-132.5 -38q-172 -66 -271 -151t-99 -182q0 -101 67 -176.5t179 -113.5t253 -38
q118 0 257 22l3 -10q-104 -86 -163 -119q-94 -18 -189 -18q-101 0 -187 25t-152.5 73.5t-104.5 127.5t-38 180q0 174 128.5 307t321.5 179zM672 221l36 24l3 -1q5 -116 177 -116h51v-128h-55q-215 0 -215 165q0 28 3 56zM640 -262q-46 -63 -72 -86q-52 51 -110 98
q37 51 74 89q51 -39 108 -101zM500 -74q-41 -58 -71 -86q-66 61 -110 98q30 41 74 89q52 -40 107 -101zM690 -62q-46 -63 -72 -86q-52 51 -110 98q39 53 75 89q50 -40 107 -101zM345 749q49 65 81 102q60 -44 120 -107q-35 -57 -83 -98q-27 26 -118 103z" />
    <glyph glyph-name="uni06C2.fina" unicode="&#x6c2;" horiz-adv-x="789" 
d="M789 128v-128h-19q-114 0 -185.5 51.5t-101.5 166.5q-5 31 -46 31q-97 0 -257 -94q-88 -55 -120 -87l-8 9l74 152q214 158 342 158q39 0 58 -21.5t26 -61.5q8 -44 40 -93q61 -83 180 -84zM602 719v-3q-19 -39 -39 -68q-146 -23 -260 -75l-2 3l24 42q19 24 46 33v3
q-78 23 -78 87q0 41 47 88q64 57 121 57q29 0 46 -14.5t17 -34.5q0 -27 -32 -65h-2q-18 35 -32 39q-10 3 -31 3q-25 0 -47.5 -11.5t-22.5 -23.5q0 -22 24.5 -37.5t55 -21t63.5 -5.5q34 0 102 4z" />
    <glyph glyph-name="uni06C3.fina" unicode="&#x6c3;" horiz-adv-x="789" 
d="M789 128v-128h-19q-114 0 -185.5 51.5t-101.5 166.5q-5 31 -46 31q-97 0 -257 -94q-88 -55 -120 -87l-8 9l74 152q214 158 342 158q39 0 58 -21.5t26 -61.5q8 -44 40 -93q61 -83 180 -84zM646 682q-43 -61 -76 -92q-59 56 -117 104q37 52 79 95q53 -42 114 -107zM453 669
q-43 -61 -76 -92q-59 56 -117 104q37 52 79 95q53 -42 114 -107z" />
    <glyph glyph-name="uni06C4.fina" unicode="&#x6c4;" horiz-adv-x="698" 
d="M258 -279q-53 30 -53 91q0 44 30.5 74.5t74.5 30.5q42 0 72.5 -29t32.5 -71l2 -2q109 109 129 185h-49q-308 0 -308 205q0 89 51 161q66 96 154 96q71 0 133 -92t82 -242h89v-128h-84q-8 -100 -80 -216q-57 -84 -126.5 -130t-116.5 -46q-124 0 -288 101l17 33
q67 -36 147 -36q46 0 91 15zM541 128q-17 89 -70 146q-50 56 -106 56q-41 0 -77 -28.5t-36 -59.5q0 -67 109 -99q55 -15 180 -15zM245 -188q0 -27 19 -46t46 -19t46 19t19 46t-19 46t-46 19t-46 -19t-19 -46z" />
    <glyph glyph-name="uni06CA.fina" unicode="&#x6ca;" horiz-adv-x="690" 
d="M601 128h89v-128h-83q-8 -103 -76 -205q-53 -80 -124 -125.5t-117 -45.5q-124 0 -288 101l17 33q67 -36 147 -36q143 0 278 138q79 80 94 140h-49q-308 0 -308 205q0 89 51 161q66 96 154 96q71 0 133 -92t82 -242zM533 128q-17 89 -70 146q-50 56 -106 56
q-41 0 -77 -28.5t-36 -59.5q0 -67 109 -99q55 -15 180 -15zM531 692q-43 -61 -76 -92q-59 56 -117 104q37 52 79 95q53 -42 114 -107zM338 679q-43 -61 -76 -92q-59 56 -117 104q37 52 79 95q53 -42 114 -107z" />
    <glyph glyph-name="uni06CD.fina" unicode="&#x6cd;" horiz-adv-x="1232" 
d="M879 128h353v-128h-58q4 -37 4 -72q0 -22 -16 -63.5t-29 -61.5q-95 -85 -224 -135.5t-242 -50.5q-170 0 -265.5 96.5t-95.5 256.5q0 105 37 209q-172 -72 -282 -134l-6 6l42 137q205 96 325 147l15 -18q-61 -143 -61 -251q0 -135 80 -218q91 -94 242 -94q143 0 319 86
q80 45 90 69q-18 38 -97.5 64.5t-193.5 26.5l-6 14z" />
    <glyph glyph-name="uni06CE.init" unicode="&#x6ce;" horiz-adv-x="441" 
d="M0 128h17q145 0 197 19q57 21 57 44q0 51 -100 247q37 66 75 113h5q100 -176 100 -305q0 -93 -70 -186q-34 -34 -93.5 -47t-175.5 -13h-12q-37 0 -53.5 20.5t-16.5 46.5q0 23 17 42t53 19zM191 -307q-43 -61 -76 -92q-59 56 -117 104q37 52 79 95q53 -42 114 -107z
M384 -294q-43 -61 -76 -92q-59 56 -117 104q37 52 79 95q53 -42 114 -107zM349 988q15 -34 23 -75q-134 -153 -150 -212l-19 -10q-10 60 -175 195l23 97h8q121 -119 154 -176h3q29 61 133 181z" />
    <glyph glyph-name="uni06CE.medi" unicode="&#x6ce;" horiz-adv-x="451" 
d="M211 -307q-43 -61 -76 -92q-59 56 -117 104q37 52 79 95q53 -42 114 -107zM404 -294q-43 -61 -76 -92q-59 56 -117 104q37 52 79 95q53 -42 114 -107zM0 128h22q61 0 111 23.5t61 64.5l29 108l69 50l6 -7q-22 -80 -22 -116q0 -57 33 -83q49 -40 124 -40h18v-128h-23
q-160 0 -206 102h-4q-25 -49 -79 -75.5t-120 -26.5h-19q-37 0 -53.5 20.5t-16.5 46.5q0 23 17 42t53 19zM376 868q15 -34 23 -75q-134 -153 -150 -212l-19 -10q-10 60 -175 195l23 97h8q121 -119 154 -176h3q29 61 133 181z" />
    <glyph glyph-name="uni06CE.fina" unicode="&#x6ce;" horiz-adv-x="1017" 
d="M664 128h353v-128h-58q4 -37 4 -72q0 -22 -16 -63.5t-29 -61.5q-95 -85 -224 -135.5t-242 -50.5q-177 0 -275 108q-87 97 -87 279q0 75 26 167t68 163l38 -17q-61 -148 -61 -251q0 -135 80 -218q91 -94 242 -94q143 0 319 86q80 45 90 69q-18 38 -97.5 64.5t-193.5 26.5
l-6 14zM689 718q15 -34 23 -75q-134 -153 -150 -212l-19 -10q-10 60 -175 195l23 97h8q121 -119 154 -176h3q29 61 133 181z" />
    <glyph glyph-name="uni06CF.fina" unicode="&#x6cf;" horiz-adv-x="690" 
d="M601 128h89v-128h-83q-8 -103 -76 -205q-53 -80 -124 -125.5t-117 -45.5q-124 0 -288 101l17 33q67 -36 147 -36q143 0 278 138q79 80 94 140h-49q-308 0 -308 205q0 89 51 161q66 96 154 96q71 0 133 -92t82 -242zM533 128q-17 89 -70 146q-50 56 -106 56
q-41 0 -77 -28.5t-36 -59.5q0 -67 109 -99q55 -15 180 -15zM245 720q49 65 81 102q60 -44 120 -107q-35 -57 -83 -98q-27 26 -118 103z" />
    <glyph glyph-name="uni06D1.init" unicode="&#x6d1;" horiz-adv-x="445" 
d="M0 128h17q145 0 197 19q57 21 57 44q0 51 -100 247q37 66 75 113h5q100 -176 100 -305q0 -93 -70 -186q-34 -34 -93.5 -47t-175.5 -13h-12q-37 0 -53.5 20.5t-16.5 46.5q0 23 17 42t53 19zM388 -247q-43 -61 -76 -92q-59 56 -117 104q37 52 79 95q53 -42 114 -107z
M195 -260q-43 -61 -76 -92q-59 56 -117 104q37 52 79 95q53 -42 114 -107zM335 -459q-43 -61 -76 -92q-59 56 -117 104q37 52 79 95q53 -42 114 -107z" />
    <glyph glyph-name="uni06D1.medi" unicode="&#x6d1;" horiz-adv-x="451" 
d="M0 128h22q61 0 111 23.5t61 64.5l29 108l69 50l6 -7q-22 -80 -22 -116q0 -57 33 -83q49 -40 124 -40h18v-128h-23q-160 0 -206 102h-4q-25 -49 -79 -75.5t-120 -26.5h-19q-37 0 -53.5 20.5t-16.5 46.5q0 23 17 42t53 19zM388 -247q-43 -61 -76 -92q-59 56 -117 104
q37 52 79 95q53 -42 114 -107zM195 -260q-43 -61 -76 -92q-59 56 -117 104q37 52 79 95q53 -42 114 -107zM335 -459q-43 -61 -76 -92q-59 56 -117 104q37 52 79 95q53 -42 114 -107z" />
    <glyph glyph-name="uni06D1.fina" unicode="&#x6d1;" horiz-adv-x="1017" 
d="M664 128h353v-128h-58q4 -37 4 -72q0 -22 -16 -63.5t-29 -61.5q-95 -85 -224 -135.5t-242 -50.5q-177 0 -275 108q-87 97 -87 279q0 75 26 167t68 163l38 -17q-61 -148 -61 -251q0 -135 80 -218q91 -94 242 -94q143 0 319 86q80 45 90 69q-18 38 -97.5 64.5t-193.5 26.5
l-6 14zM671 -557q-43 -61 -76 -92q-59 56 -117 104q37 52 79 95q53 -42 114 -107zM478 -570q-43 -61 -76 -92q-59 56 -117 104q37 52 79 95q53 -42 114 -107zM618 -769q-43 -61 -76 -92q-59 56 -117 104q37 52 79 95q53 -42 114 -107z" />
    <glyph glyph-name="uni06D5.fina" unicode="&#x6d5;" horiz-adv-x="699" 
d="M470 139q-100 -44 -198 -44q-82 0 -132 29.5t-50 87.5q0 44 33 117q63 134 319 275l-6 75q43 50 79 82h11q2 -69 3 -146.5t1.5 -172.5t1.5 -147q1 -57 9 -90t29 -51q30 -26 105 -26h24v-128h-22q-80 0 -130 29.5t-77 109.5zM454 246l-5 247q-271 -140 -271 -219
q0 -28 36.5 -42t91.5 -14q61 0 148 28z" />
    <glyph glyph-name="uni06EE.fina" unicode="&#x6ee;" horiz-adv-x="770" 
d="M770 128v-128h-19q-153 0 -204 163h-5q-13 -60 -72 -96q-111 -67 -201 -67q-84 0 -129 48.5t-45 136.5q0 36 3 74l39 3q6 -134 141 -134q76 0 163 50q28 16 46.5 36.5t18.5 38.5q0 70 -83 372q54 82 71 103l6 -4q47 -181 95 -445q13 -72 56.5 -111.5t101.5 -39.5h17z
M295 840q-15 34 -23 75q134 153 150 212l19 10q10 -60 175 -195l-23 -97h-8q-121 119 -154 176h-3q-29 -61 -133 -181z" />
    <glyph glyph-name="uni06EF.fina" unicode="&#x6ef;" horiz-adv-x="656" 
d="M406 343l7 1q47 -113 95.5 -164.5t129.5 -51.5h18v-128h-21q-66 0 -101 32h-4q2 -24 2 -35q0 -84 -40 -155q-57 -100 -119 -149.5t-120 -49.5q-103 0 -250 78l15 34q46 -22 115 -22q66 0 139.5 43.5t127.5 114t65 142.5q-9 21 -27 45q-48 68 -87 149q26 59 55 116z
M224 490q-15 34 -23 75q134 153 150 212l19 10q10 -60 175 -195l-23 -97h-8q-121 119 -154 176h-3q-29 -61 -133 -181z" />
    <glyph glyph-name="uni06FA.init" unicode="&#x6fa;" horiz-adv-x="905" 
d="M592 802q-43 -61 -76 -92q-59 56 -117 104q37 52 79 95q53 -42 114 -107zM538 589q-43 -61 -76 -92q-59 56 -117 104q37 52 79 95q53 -42 114 -107zM731 602q-43 -61 -76 -92q-59 56 -117 104q37 52 79 95q53 -42 114 -107zM800 431l6 -3q16 -100 16 -178q0 -67 -36 -137
q-66 -110 -148 -110q-66 0 -125 83h-8q-79 -86 -175 -86q-87 0 -96 85h-4q-73 -85 -213 -85h-17q-37 0 -53.5 20.5t-16.5 46.5q0 23 17 42t53 19h34q147 2 211 93l55 79l77 27l4 -5q-68 -109 -68 -144q0 -23 14.5 -36.5t37.5 -13.5q48 0 89 29q6 4 10.5 8.5t9 10.5t7.5 10.5
t7 14t6 15t6.5 19.5t7 22t8 27.5t9.5 31.5l60 35l6 -4q-13 -52 -13 -98q0 -53 32 -84t72 -31q22 0 37.5 12t15.5 33q0 49 -25 162q42 49 90 90zM415 -290q49 65 81 102q60 -44 120 -107q-35 -57 -83 -98q-27 26 -118 103z" />
    <glyph glyph-name="uni06FA.medi" unicode="&#x6fa;" horiz-adv-x="1024" 
d="M622 792q-43 -61 -76 -92q-59 56 -117 104q37 52 79 95q53 -42 114 -107zM568 579q-43 -61 -76 -92q-59 56 -117 104q37 52 79 95q53 -42 114 -107zM761 592q-43 -61 -76 -92q-59 56 -117 104q37 52 79 95q53 -42 114 -107zM1024 128v-128h-25q-164 0 -206 94h-6
q-80 -94 -171 -94q-90 0 -109 83h-4q-76 -83 -173 -83q-87 0 -96 85h-4q-73 -85 -213 -85h-17q-37 0 -53.5 20.5t-16.5 46.5q0 23 17 42t53 19h34q144 2 211 93l50 78l77 27l4 -5q-65 -113 -65 -143q0 -23 15 -36.5t39 -13.5q48 0 87 30q39 28 65 88l24 59l76 35l4 -4
q-41 -104 -41 -150q0 -23 14.5 -40.5t41.5 -17.5q36 0 69 22q38 26 58 96q1 5 4.5 16.5t7.5 27.5t8 35l76 51l4 -3q-25 -85 -25 -137q0 -108 164 -108h22zM435 -290q49 65 81 102q60 -44 120 -107q-35 -57 -83 -98q-27 26 -118 103z" />
    <glyph glyph-name="uni06FA.fina" unicode="&#x6fa;" horiz-adv-x="1467" 
d="M1191 602q-43 -61 -76 -92q-59 56 -117 104q37 52 79 95q53 -42 114 -107zM998 589q-43 -61 -76 -92q-59 56 -117 104q37 52 79 95q53 -42 114 -107zM1052 802q-43 -61 -76 -92q-59 56 -117 104q37 52 79 95q53 -42 114 -107zM773 0h-20q-17 -110 -38 -160
q-38 -85 -134 -140t-202 -55q-141 0 -216 85t-75 222q0 158 79 280l35 -18q-48 -108 -48 -187q0 -117 69.5 -179.5t174.5 -62.5q112 0 204.5 69.5t92.5 142.5q0 48 -28 121t-75 144q23 43 66 107h4q49 -95 82 -191q11 -27 24.5 -38.5t39.5 -11.5q39 0 76 28q40 27 58 79
l26 74l68 31l4 -5q-30 -94 -30 -146q0 -30 19 -45.5t50 -15.5q90 0 123 133l17 70l73 43l4 -5q-24 -92 -24 -137q0 -104 173 -104h22v-128h-25q-174 0 -216 94h-6q-80 -94 -175 -94q-88 0 -107 83h-6q-55 -83 -159 -83zM925 -300q49 65 81 102q60 -44 120 -107
q-35 -57 -83 -98q-27 26 -118 103z" />
    <glyph glyph-name="uni06FB.init" unicode="&#x6fb;" horiz-adv-x="1066" 
d="M525 774q49 65 81 102q60 -44 120 -107q-35 -57 -83 -98q-27 26 -118 103zM0 128h22q67 0 111.5 22.5t53.5 65.5q15 74 26 114q26 25 66 52l6 -6q-16 -57 -16 -94q0 -71 60 -111q110 168 206 254q122 109 240 109q67 0 114.5 -32t71.5 -78q25 -51 25 -117q0 -41 -19 -95
q-43 -127 -208 -181q-90 -31 -249 -31q-211 0 -288 105h-3q-67 -105 -207 -105h-12q-37 0 -53.5 20.5t-16.5 46.5q0 23 17 42t53 19zM381 149q63 -21 187 -21q141 0 260 57q82 39 82 72q-10 65 -58 108.5t-114 43.5q-86 0 -181 -71.5t-176 -188.5zM555 -300q49 65 81 102
q60 -44 120 -107q-35 -57 -83 -98q-27 26 -118 103z" />
    <glyph glyph-name="uni06FB.medi" unicode="&#x6fb;" horiz-adv-x="1063" 
d="M525 769q49 65 81 102q60 -44 120 -107q-35 -57 -83 -98q-27 26 -118 103zM0 128h22q67 0 111.5 22.5t53.5 65.5q15 74 26 114q26 25 66 52l6 -6q-16 -57 -16 -94q0 -40 12 -65t43 -46q109 166 207 252q118 103 224 103q103 0 164.5 -64.5t61.5 -156.5q0 -75 -51 -177
h133v-128h-26q-151 0 -299 35q-112 -35 -233 -35q-205 0 -283 105h-3q-67 -105 -207 -105h-12q-37 0 -53.5 20.5t-16.5 46.5q0 23 17 42t53 19zM380 149q63 -21 183 -21q71 0 143.5 13.5t116.5 31.5q82 33 82 75q-10 64 -64.5 106.5t-122.5 42.5q-157 0 -338 -248zM555 -300
q49 65 81 102q60 -44 120 -107q-35 -57 -83 -98q-27 26 -118 103z" />
    <glyph glyph-name="uni06FB.fina" unicode="&#x6fb;" horiz-adv-x="1477" 
d="M859 769q49 65 81 102q60 -44 120 -107q-35 -57 -83 -98q-27 26 -118 103zM738 171q107 164 207 251q119 104 224 104q103 0 164.5 -64.5t61.5 -156.5q0 -75 -51 -177h133v-128h-38q-139 0 -287 35q-112 -35 -233 -35q-34 0 -61.5 1.5t-46.5 5t-29 5.5t-21.5 6t-12.5 4
q-15 -96 -39 -154q-38 -87 -131 -144.5t-197 -57.5q-140 0 -215.5 89.5t-75.5 227.5q0 163 76 280l38 -18q-48 -108 -48 -187q0 -118 70.5 -185t173.5 -67q87 0 168 57.5t113 129.5q-15 177 -108 318q26 48 74 107l8 -1q66 -107 83 -246zM794 149q63 -21 183 -21
q69 0 142 13t118 32q82 33 82 75q-10 64 -64.5 106.5t-122.5 42.5q-157 0 -338 -248zM929 -300q49 65 81 102q60 -44 120 -107q-35 -57 -83 -98q-27 26 -118 103z" />
    <glyph glyph-name="uni06FC.init" unicode="&#x6fc;" horiz-adv-x="733" 
d="M157 829q49 65 81 102q60 -44 120 -107q-35 -57 -83 -98q-27 26 -118 103zM235 -271q49 65 81 102q60 -44 120 -107q-35 -57 -83 -98q-27 26 -118 103zM0 128h63q73 0 148 21v5q-117 77 -117 196q0 59 43 131q37 61 90.5 97.5t116.5 36.5q139 0 222 -163l-19 -20
q-75 64 -179 64q-75 0 -129 -27.5t-54 -56.5q0 -75 86 -142q29 -23 64 -38.5t57 -15.5q36 0 85.5 11t86 22.5t114.5 37.5l5 -5l-53 -124q-87 -31 -197 -59.5t-158 -44.5q-59 -19 -87 -27.5t-74 -17.5t-83 -9h-31q-37 0 -53.5 20.5t-16.5 46.5q0 23 17 42t53 19z" />
    <glyph glyph-name="uni06FC.medi" unicode="&#x6fc;" horiz-adv-x="748" 
d="M0 128h42q77 0 133.5 9t128.5 41v4q-20 14 -43.5 35.5t-52 50t-44.5 43.5q-46 42 -69 42h-31l-3 2l39 115l31 4q151 33 268 33q171 0 290 -50l-35 -109l-174 -161v-4q102 -55 228 -55h40v-128h-30q-85 0 -173 30.5t-160 86.5h-4q-89 -64 -172 -90.5t-178 -26.5h-31
q-37 0 -53.5 20.5t-16.5 46.5q0 23 17 42t53 19zM401 226h4q109 78 184 149v4q-106 25 -186 25q-88 0 -185 -18v-4q10 -9 31 -30t28 -27q50 -47 124 -99zM265 779q49 65 81 102q60 -44 120 -107q-35 -57 -83 -98q-27 26 -118 103zM275 -271q49 65 81 102q60 -44 120 -107
q-35 -57 -83 -98q-27 26 -118 103z" />
    <glyph glyph-name="uni06FC.fina" unicode="&#x6fc;" horiz-adv-x="842" 
d="M449 128h-6q-295 -149 -295 -294q0 -126 126.5 -204.5t330.5 -78.5q142 0 255 29l7 -18q-95 -71 -168 -112q-52 -29 -171 -29q-93 0 -173 22.5t-142 67t-97.5 117t-35.5 166.5q0 124 78 225.5t201 178.5q-19 14 -39 34t-43.5 45t-36.5 38q-4 4 -14 13.5t-15 14t-13 10.5
t-14 8.5t-12 2.5q-13 0 -49 -12l-6 9l43 109l47 8q151 33 268 33q176 0 286 -46l-24 -113l-193 -166v-4q100 -54 240 -54h58v-128h-47q-86 0 -178.5 35t-167.5 93zM456 236l4 -1q8 5 32.5 20.5t36 22.5t33.5 22t36.5 25.5t33 25.5t33.5 30v6q-107 23 -191 23
q-100 0 -192 -20v-5q7 -7 34.5 -29.5t39.5 -33.5q5 -4 41.5 -36t58.5 -50zM335 779q49 65 81 102q60 -44 120 -107q-35 -57 -83 -98q-27 26 -118 103zM370 -171q49 65 81 102q60 -44 120 -107q-35 -57 -83 -98q-27 26 -118 103z" />
    <glyph glyph-name="uni06FF.init" unicode="&#x6ff;" horiz-adv-x="920" 
d="M0 128h18q103 0 178 29q-22 58 -22 137q0 95 63 182q48 65 98 93q5 50 18 100h8q42 -41 101 -86t135.5 -98.5t115.5 -82.5q66 -50 95 -99.5t29 -115.5q0 -80 -51 -133.5t-148 -53.5q-129 0 -341 68q-164 -68 -274 -68h-23q-37 0 -53.5 20.5t-16.5 46.5q0 23 17 42t53 19z
M334 183q158 55 158 115t-34.5 109.5t-68.5 49.5q-53 0 -109 -58t-56 -100q0 -25 29 -57.5t81 -58.5zM482 140q84 -28 186 -28q43 0 74.5 13t31.5 32q0 45 -55 97t-160 119q-12 -119 -77 -233zM208 780q-15 34 -23 75q134 153 150 212l19 10q10 -60 175 -195l-23 -97h-8
q-121 119 -154 176h-3q-29 -61 -133 -181z" />
    <glyph glyph-name="uni06FF.medi" unicode="&#x6ff;" horiz-adv-x="632" 
d="M0 128h111q28 123 54 213q41 148 114 257l9 3q7 -16 37 -60q65 -92 98 -157.5t33 -123.5q0 -72 -19 -132h195v-128h-26q-52 0 -84 10l-5 -2q41 -67 41 -135q0 -69 -32 -120q-23 -39 -64.5 -66.5t-85.5 -27.5q-81 0 -142 40q-62 39 -99 109.5t-37 147.5v49q-38 -5 -79 -5
h-19q-37 0 -53.5 20.5t-16.5 46.5q0 23 17 42t53 19zM157 2q5 -71 63 -138q40 -46 91.5 -73t99.5 -27q28 0 43 13.5t15 35.5q0 65 -39 120q-55 78 -160 78q-56 0 -113 -9zM167 128q105 0 157 14q66 18 66 51q0 43 -31.5 99t-92.5 142h-5q-55 -162 -94 -306zM138 740
q-15 34 -23 75q134 153 150 212l19 10q10 -60 175 -195l-23 -97h-8q-121 119 -154 176h-3q-29 -61 -133 -181z" />
    <glyph glyph-name="uni06FF.fina" unicode="&#x6ff;" horiz-adv-x="803" 
d="M57 -93l-16 10q41 83 83 133q35 46 158 68q39 172 54 223q41 148 114 257l9 3q7 -16 37 -60q65 -92 98 -157.5t33 -123.5q0 -72 -19 -132h195v-128h-26q-51 0 -84 10l-5 -2q41 -67 41 -135q0 -69 -32 -120q-23 -39 -64.5 -66.5t-85.5 -27.5q-81 0 -142 40
q-62 39 -99 109.5t-37 147.5v40q-152 -23 -212 -89zM328 3q4 -72 63 -139q40 -46 91.5 -73t99.5 -27q28 0 43 13.5t15 35.5q0 65 -39 120q-55 78 -160 78q-52 0 -113 -8zM338 122q109 7 157 20q66 18 66 51q0 43 -31.5 99t-92.5 142h-5q-48 -141 -94 -312zM288 740
q-15 34 -23 75q134 153 150 212l19 10q10 -60 175 -195l-23 -97h-8q-121 119 -154 176h-3q-29 -61 -133 -181z" />
    <glyph glyph-name="uniFB50" unicode="&#x671;" horiz-adv-x="406" arabic-form="isolated" 
d="M211 -24l-13 7q11 69 11 200v98q0 233 -36 622q46 59 98 106l9 -3q26 -270 26 -704q0 -103 -7 -165q-2 -40 -22 -75.5t-66 -85.5zM29 1075l-6 3l5 73q32 63 59 63q15 0 39 -12q92 130 168 130q42 0 69 -30q28 -33 28 -90q0 -52 -37 -89q-40 -38 -101 -38
q-45 0 -83.5 11.5t-60 22.5t-23.5 11q-15 0 -57 -55zM157 1185q50 -24 105 -24q32 0 61 12.5t30 31.5q-7 25 -26.5 41.5t-43.5 17.5q-62 0 -126 -79z" />
    <glyph glyph-name="uniFB51" unicode="&#x671;" horiz-adv-x="436" arabic-form="final" 
d="M436 128v-128h-11q-114 0 -171 57q-42 43 -52 98t-10 182q0 234 -26 601q63 68 94 93l7 -4q16 -219 16 -724v-57q0 -80 75 -107q31 -11 64 -11h14zM29 1075l-6 3l5 73q32 63 59 63q15 0 39 -12q92 130 168 130q42 0 69 -30q28 -33 28 -90q0 -52 -37 -89q-40 -38 -101 -38
q-45 0 -83.5 11.5t-60 22.5t-23.5 11q-15 0 -57 -55zM157 1185q50 -24 105 -24q32 0 61 12.5t30 31.5q-7 25 -26.5 41.5t-43.5 17.5q-62 0 -126 -79z" />
    <glyph glyph-name="uniFB52" unicode="&#x67b;" horiz-adv-x="1266" arabic-form="isolated" 
d="M1131 79q-70 -42 -235 -80.5t-306 -38.5q-85 0 -157.5 12.5t-134.5 39.5t-105.5 67t-68 98.5t-24.5 130.5q0 131 59 242l40 -17q-29 -87 -29 -152q0 -74 34.5 -129.5t96.5 -89t142 -50t177 -16.5q158 0 342 43q85 20 132 41q10 4 10 11q0 51 -100 247q37 66 75 113h5
q100 -176 100 -305q0 -35 -8.5 -67t-17.5 -51.5t-27 -48.5zM750 -252q-42 -58 -76 -90q-58 53 -118 102q38 51 79 92q54 -40 115 -104zM770 -454q-46 -62 -76 -89q-63 57 -118 101q35 48 79 93q55 -42 115 -105z" />
    <glyph glyph-name="uniFB53" unicode="&#x67b;" horiz-adv-x="1361" arabic-form="final" 
d="M1361 128v-128h-23q-78 0 -127.5 19t-76.5 68q-62 -38 -156 -65q-212 -62 -388 -62q-222 0 -343 77q-147 94 -147 271q0 131 59 242l40 -17q-29 -87 -29 -152q0 -68 35.5 -126t96.5 -95q107 -64 318 -64q154 0 342 44q70 17 132 44l44 140l64 50l6 -7q-23 -67 -23 -112
q0 -63 34 -89q48 -38 124 -38h18zM740 -252q-42 -58 -76 -90q-58 53 -118 102q38 51 79 92q54 -40 115 -104zM760 -454q-46 -62 -76 -89q-63 57 -118 101q35 48 79 93q55 -42 115 -105z" />
    <glyph glyph-name="uniFB54" unicode="&#x67b;" horiz-adv-x="433" arabic-form="initial" 
d="M0 128h17q145 0 197 19q57 21 57 44q0 51 -100 247q37 66 75 113h5q100 -176 100 -305q0 -93 -70 -186q-34 -34 -93.5 -47t-175.5 -13h-12q-37 0 -53.5 20.5t-16.5 46.5q0 23 17 42t53 19zM301 -232q-42 -58 -76 -90q-58 53 -118 102q38 51 79 92q54 -40 115 -104z
M321 -434q-46 -62 -76 -89q-63 57 -118 101q35 48 79 93q55 -42 115 -105z" />
    <glyph glyph-name="uniFB55" unicode="&#x67b;" horiz-adv-x="451" arabic-form="medial" 
d="M0 128h22q61 0 111 23.5t61 64.5l29 108l69 50l6 -7q-22 -80 -22 -116q0 -57 33 -83q49 -40 124 -40h18v-128h-23q-160 0 -206 102h-4q-25 -49 -79 -75.5t-120 -26.5h-19q-37 0 -53.5 20.5t-16.5 46.5q0 23 17 42t53 19zM311 -232q-42 -58 -76 -90q-58 53 -118 102
q38 51 79 92q54 -40 115 -104zM331 -434q-46 -62 -76 -89q-63 57 -118 101q35 48 79 93q55 -42 115 -105z" />
    <glyph glyph-name="uniFB56" unicode="&#x67e;" horiz-adv-x="1266" arabic-form="isolated" 
d="M1131 79q-70 -42 -235 -80.5t-306 -38.5q-85 0 -157.5 12.5t-134.5 39.5t-105.5 67t-68 98.5t-24.5 130.5q0 131 59 242l40 -17q-29 -87 -29 -152q0 -74 34.5 -129.5t96.5 -89t142 -50t177 -16.5q158 0 342 43q85 20 132 41q10 4 10 11q0 51 -100 247q37 66 75 113h5
q100 -176 100 -305q0 -35 -8.5 -67t-17.5 -51.5t-27 -48.5zM857 -247q-43 -61 -76 -92q-59 56 -117 104q37 52 79 95q53 -42 114 -107zM664 -260q-43 -61 -76 -92q-59 56 -117 104q37 52 79 95q53 -42 114 -107zM804 -459q-43 -61 -76 -92q-59 56 -117 104q37 52 79 95
q53 -42 114 -107z" />
    <glyph glyph-name="uniFB57" unicode="&#x67e;" horiz-adv-x="1361" arabic-form="final" 
d="M1361 128v-128h-23q-78 0 -127.5 19t-76.5 68q-62 -38 -156 -65q-212 -62 -388 -62q-222 0 -343 77q-147 94 -147 271q0 131 59 242l40 -17q-29 -87 -29 -152q0 -68 35.5 -126t96.5 -95q107 -64 318 -64q154 0 342 44q70 17 132 44l44 140l64 50l6 -7q-23 -67 -23 -112
q0 -63 34 -89q48 -38 124 -38h18zM857 -247q-43 -61 -76 -92q-59 56 -117 104q37 52 79 95q53 -42 114 -107zM664 -260q-43 -61 -76 -92q-59 56 -117 104q37 52 79 95q53 -42 114 -107zM804 -459q-43 -61 -76 -92q-59 56 -117 104q37 52 79 95q53 -42 114 -107z" />
    <glyph glyph-name="uniFB58" unicode="&#x67e;" horiz-adv-x="441" arabic-form="initial" 
d="M0 128h17q145 0 197 19q57 21 57 44q0 51 -100 247q37 66 75 113h5q100 -176 100 -305q0 -93 -70 -186q-34 -34 -93.5 -47t-175.5 -13h-12q-37 0 -53.5 20.5t-16.5 46.5q0 23 17 42t53 19zM388 -247q-43 -61 -76 -92q-59 56 -117 104q37 52 79 95q53 -42 114 -107z
M195 -260q-43 -61 -76 -92q-59 56 -117 104q37 52 79 95q53 -42 114 -107zM335 -459q-43 -61 -76 -92q-59 56 -117 104q37 52 79 95q53 -42 114 -107z" />
    <glyph glyph-name="uniFB59" unicode="&#x67e;" horiz-adv-x="451" arabic-form="medial" 
d="M0 128h22q61 0 111 23.5t61 64.5l29 108l69 50l6 -7q-22 -80 -22 -116q0 -57 33 -83q49 -40 124 -40h18v-128h-23q-160 0 -206 102h-4q-25 -49 -79 -75.5t-120 -26.5h-19q-37 0 -53.5 20.5t-16.5 46.5q0 23 17 42t53 19zM388 -247q-43 -61 -76 -92q-59 56 -117 104
q37 52 79 95q53 -42 114 -107zM195 -260q-43 -61 -76 -92q-59 56 -117 104q37 52 79 95q53 -42 114 -107zM335 -459q-43 -61 -76 -92q-59 56 -117 104q37 52 79 95q53 -42 114 -107z" />
    <glyph glyph-name="uniFB5A" unicode="&#x680;" horiz-adv-x="1266" arabic-form="isolated" 
d="M1131 79q-70 -42 -235 -80.5t-306 -38.5q-85 0 -157.5 12.5t-134.5 39.5t-105.5 67t-68 98.5t-24.5 130.5q0 131 59 242l40 -17q-29 -87 -29 -152q0 -74 34.5 -129.5t96.5 -89t142 -50t177 -16.5q158 0 342 43q85 20 132 41q10 4 10 11q0 51 -100 247q37 66 75 113h5
q100 -176 100 -305q0 -35 -8.5 -67t-17.5 -51.5t-27 -48.5zM675 -444q-46 -63 -72 -86q-52 51 -110 98q37 51 74 89q51 -39 108 -101zM859 -431q-37 -55 -71 -87q-53 50 -110 98q36 51 74 89q48 -38 107 -100zM663 -254q-41 -58 -71 -86q-66 61 -110 98q30 41 74 89
q52 -40 107 -101zM848 -242q-46 -63 -72 -86q-52 51 -110 98q39 53 75 89q50 -40 107 -101z" />
    <glyph glyph-name="uniFB5B" unicode="&#x680;" horiz-adv-x="1361" arabic-form="final" 
d="M1361 128v-128h-23q-78 0 -127.5 19t-76.5 68q-62 -38 -156 -65q-212 -62 -388 -62q-222 0 -343 77q-147 94 -147 271q0 131 59 242l40 -17q-29 -87 -29 -152q0 -68 35.5 -126t96.5 -95q107 -64 318 -64q154 0 342 44q70 17 132 44l44 140l64 50l6 -7q-23 -67 -23 -112
q0 -63 34 -89q48 -38 124 -38h18zM675 -444q-46 -63 -72 -86q-52 51 -110 98q37 51 74 89q51 -39 108 -101zM859 -431q-37 -55 -71 -87q-53 50 -110 98q36 51 74 89q48 -38 107 -100zM663 -254q-41 -58 -71 -86q-66 61 -110 98q30 41 74 89q52 -40 107 -101zM848 -242
q-46 -63 -72 -86q-52 51 -110 98q39 53 75 89q50 -40 107 -101z" />
    <glyph glyph-name="uniFB5C" unicode="&#x680;" horiz-adv-x="451" arabic-form="initial" 
d="M0 128h17q145 0 197 19q57 21 57 44q0 51 -100 247q37 66 75 113h5q100 -176 100 -305q0 -93 -70 -186q-34 -34 -93.5 -47t-175.5 -13h-12q-37 0 -53.5 20.5t-16.5 46.5q0 23 17 42t53 19zM205 -444q-46 -63 -72 -86q-52 51 -110 98q37 51 74 89q51 -39 108 -101z
M389 -431q-37 -55 -71 -87q-53 50 -110 98q36 51 74 89q48 -38 107 -100zM193 -254q-41 -58 -71 -86q-66 61 -110 98q30 41 74 89q52 -40 107 -101zM378 -242q-46 -63 -72 -86q-52 51 -110 98q39 53 75 89q50 -40 107 -101z" />
    <glyph glyph-name="uniFB5D" unicode="&#x680;" horiz-adv-x="451" arabic-form="medial" 
d="M0 128h22q61 0 111 23.5t61 64.5l29 108l69 50l6 -7q-22 -80 -22 -116q0 -57 33 -83q49 -40 124 -40h18v-128h-23q-160 0 -206 102h-4q-25 -49 -79 -75.5t-120 -26.5h-19q-37 0 -53.5 20.5t-16.5 46.5q0 23 17 42t53 19zM205 -444q-46 -63 -72 -86q-52 51 -110 98
q37 51 74 89q51 -39 108 -101zM389 -431q-37 -55 -71 -87q-53 50 -110 98q36 51 74 89q48 -38 107 -100zM193 -254q-41 -58 -71 -86q-66 61 -110 98q30 41 74 89q52 -40 107 -101zM378 -242q-46 -63 -72 -86q-52 51 -110 98q39 53 75 89q50 -40 107 -101z" />
    <glyph glyph-name="uniFB5E" unicode="&#x67a;" horiz-adv-x="1266" arabic-form="isolated" 
d="M1131 79q-70 -42 -235 -80.5t-306 -38.5q-85 0 -157.5 12.5t-134.5 39.5t-105.5 67t-68 98.5t-24.5 130.5q0 131 59 242l40 -17q-29 -87 -29 -152q0 -74 34.5 -129.5t96.5 -89t142 -50t177 -16.5q158 0 342 43q85 20 132 41q10 4 10 11q0 51 -100 247q37 66 75 113h5
q100 -176 100 -305q0 -35 -8.5 -67t-17.5 -51.5t-27 -48.5zM700 918q-42 -58 -76 -90q-58 53 -118 102q38 51 79 92q54 -40 115 -104zM720 716q-46 -62 -76 -89q-63 57 -118 101q35 48 79 93q55 -42 115 -105z" />
    <glyph glyph-name="uniFB5F" unicode="&#x67a;" horiz-adv-x="1361" arabic-form="final" 
d="M1361 128v-128h-23q-78 0 -127.5 19t-76.5 68q-62 -38 -156 -65q-212 -62 -388 -62q-222 0 -343 77q-147 94 -147 271q0 131 59 242l40 -17q-29 -87 -29 -152q0 -68 35.5 -126t96.5 -95q107 -64 318 -64q154 0 342 44q70 17 132 44l44 140l64 50l6 -7q-23 -67 -23 -112
q0 -63 34 -89q48 -38 124 -38h18zM750 918q-42 -58 -76 -90q-58 53 -118 102q38 51 79 92q54 -40 115 -104zM770 716q-46 -62 -76 -89q-63 57 -118 101q35 48 79 93q55 -42 115 -105z" />
    <glyph glyph-name="uniFB60" unicode="&#x67a;" horiz-adv-x="436" arabic-form="initial" 
d="M0 128h17q145 0 197 19q57 21 57 44q0 51 -100 247q37 66 75 113h5q100 -176 100 -305q0 -93 -70 -186q-34 -34 -93.5 -47t-175.5 -13h-12q-37 0 -53.5 20.5t-16.5 46.5q0 23 17 42t53 19zM281 948q-42 -58 -76 -90q-58 53 -118 102q38 51 79 92q54 -40 115 -104z
M301 746q-46 -62 -76 -89q-63 57 -118 101q35 48 79 93q55 -42 115 -105z" />
    <glyph glyph-name="uniFB61" unicode="&#x67a;" horiz-adv-x="451" arabic-form="medial" 
d="M0 128h22q61 0 111 23.5t61 64.5l29 108l69 50l6 -7q-22 -80 -22 -116q0 -57 33 -83q49 -40 124 -40h18v-128h-23q-160 0 -206 102h-4q-25 -49 -79 -75.5t-120 -26.5h-19q-37 0 -53.5 20.5t-16.5 46.5q0 23 17 42t53 19zM311 818q-42 -58 -76 -90q-58 53 -118 102
q38 51 79 92q54 -40 115 -104zM331 616q-46 -62 -76 -89q-63 57 -118 101q35 48 79 93q55 -42 115 -105z" />
    <glyph glyph-name="uniFB62" unicode="&#x67f;" horiz-adv-x="1266" arabic-form="isolated" 
d="M1131 79q-70 -42 -235 -80.5t-306 -38.5q-85 0 -157.5 12.5t-134.5 39.5t-105.5 67t-68 98.5t-24.5 130.5q0 131 59 242l40 -17q-29 -87 -29 -152q0 -74 34.5 -129.5t96.5 -89t142 -50t177 -16.5q158 0 342 43q85 20 132 41q10 4 10 11q0 51 -100 247q37 66 75 113h5
q100 -176 100 -305q0 -35 -8.5 -67t-17.5 -51.5t-27 -48.5zM630 716q-46 -63 -72 -86q-52 51 -110 98q37 51 74 89q51 -39 108 -101zM811 729q-37 -55 -71 -87q-53 50 -110 98q36 51 74 89q48 -38 107 -100zM618 906q-41 -58 -71 -86q-66 61 -110 98q30 41 74 89
q52 -40 107 -101zM800 918q-46 -63 -72 -86q-52 51 -110 98q39 53 75 89q50 -40 107 -101z" />
    <glyph glyph-name="uniFB63" unicode="&#x67f;" horiz-adv-x="1361" arabic-form="final" 
d="M1361 128v-128h-23q-78 0 -127.5 19t-76.5 68q-62 -38 -156 -65q-212 -62 -388 -62q-222 0 -343 77q-147 94 -147 271q0 131 59 242l40 -17q-29 -87 -29 -152q0 -68 35.5 -126t96.5 -95q107 -64 318 -64q154 0 342 44q70 17 132 44l44 140l64 50l6 -7q-23 -67 -23 -112
q0 -63 34 -89q48 -38 124 -38h18zM670 716q-46 -63 -72 -86q-52 51 -110 98q37 51 74 89q51 -39 108 -101zM851 729q-37 -55 -71 -87q-53 50 -110 98q36 51 74 89q48 -38 107 -100zM658 906q-41 -58 -71 -86q-66 61 -110 98q30 41 74 89q52 -40 107 -101zM840 918
q-46 -63 -72 -86q-52 51 -110 98q39 53 75 89q50 -40 107 -101z" />
    <glyph glyph-name="uniFB64" unicode="&#x67f;" horiz-adv-x="441" arabic-form="initial" 
d="M0 128h17q145 0 197 19q57 21 57 44q0 51 -100 247q37 66 75 113h5q100 -176 100 -305q0 -93 -70 -186q-34 -34 -93.5 -47t-175.5 -13h-12q-37 0 -53.5 20.5t-16.5 46.5q0 23 17 42t53 19zM170 726q-46 -63 -72 -86q-52 51 -110 98q37 51 74 89q51 -39 108 -101zM351 739
q-37 -55 -71 -87q-53 50 -110 98q36 51 74 89q48 -38 107 -100zM158 916q-41 -58 -71 -86q-66 61 -110 98q30 41 74 89q52 -40 107 -101zM340 928q-46 -63 -72 -86q-52 51 -110 98q39 53 75 89q50 -40 107 -101z" />
    <glyph glyph-name="uniFB65" unicode="&#x67f;" horiz-adv-x="451" arabic-form="medial" 
d="M0 128h22q61 0 111 23.5t61 64.5l29 108l69 50l6 -7q-22 -80 -22 -116q0 -57 33 -83q49 -40 124 -40h18v-128h-23q-160 0 -206 102h-4q-25 -49 -79 -75.5t-120 -26.5h-19q-37 0 -53.5 20.5t-16.5 46.5q0 23 17 42t53 19zM210 596q-46 -63 -72 -86q-52 51 -110 98
q37 51 74 89q51 -39 108 -101zM391 609q-37 -55 -71 -87q-53 50 -110 98q36 51 74 89q48 -38 107 -100zM198 786q-41 -58 -71 -86q-66 61 -110 98q30 41 74 89q52 -40 107 -101zM380 798q-46 -63 -72 -86q-52 51 -110 98q39 53 75 89q50 -40 107 -101z" />
    <glyph glyph-name="uniFB66" unicode="&#x679;" horiz-adv-x="1266" arabic-form="isolated" 
d="M1131 79q-70 -42 -235 -80.5t-306 -38.5q-85 0 -157.5 12.5t-134.5 39.5t-105.5 67t-68 98.5t-24.5 130.5q0 131 59 242l40 -17q-29 -87 -29 -152q0 -74 34.5 -129.5t96.5 -89t142 -50t177 -16.5q165 0 342 43q85 20 132 41q10 4 10 11q0 51 -100 247q37 66 75 113h5
q100 -176 100 -305q0 -35 -8.5 -67t-17.5 -51.5t-27 -48.5zM508 624l-94 77l4 6l105 -4q18 33 18 108q0 62 -6.5 124t-6.5 67q0 4 0.5 8t2.5 8l3.5 7t5 8t5.5 7.5t6.5 8t7 8t8 8.5t7.5 8h6q9 -56 41 -111l-36 -31l2 -75q0 -37 -10 -67l3 -2q76 116 150 116q44 0 71.5 -30.5
t27.5 -74.5q0 -30 -17 -73q-22 -50 -67 -73q-65 -31 -162 -31q-52 0 -75 3zM560 704q194 5 230 58q-18 61 -76 61q-79 0 -154 -119z" />
    <glyph glyph-name="uniFB67" unicode="&#x679;" horiz-adv-x="1361" arabic-form="final" 
d="M1361 128v-128h-23q-78 0 -127.5 19t-76.5 68q-59 -36 -156 -64q-215 -63 -388 -63q-222 0 -343 77q-147 94 -147 271q0 131 59 242l40 -17q-29 -87 -29 -152q0 -68 35.5 -126t96.5 -95q107 -64 318 -64q149 0 341 45q77 18 133 43l44 140l68 49l6 -7q-24 -75 -24 -119
q0 -52 35 -81q45 -38 120 -38h18zM548 624l-94 77l4 6l105 -4q18 33 18 108q0 62 -6.5 124t-6.5 67q0 4 0.5 8t2.5 8l3.5 7t5 8t5.5 7.5t6.5 8t7 8t8 8.5t7.5 8h6q9 -56 41 -111l-36 -31l2 -75q0 -37 -10 -67l3 -2q76 116 150 116q44 0 71.5 -30.5t27.5 -74.5q0 -30 -17 -73
q-22 -50 -67 -73q-65 -31 -162 -31q-52 0 -75 3zM600 704q194 5 230 58q-18 61 -76 61q-79 0 -154 -119z" />
    <glyph glyph-name="uniFB68" unicode="&#x679;" horiz-adv-x="441" arabic-form="initial" 
d="M0 128h17q145 0 197 19q57 21 57 44q0 51 -100 247q37 66 75 113h5q100 -176 100 -305q0 -93 -70 -186q-34 -34 -93.5 -47t-175.5 -13h-12q-37 0 -53.5 20.5t-16.5 46.5q0 23 17 42t53 19zM49 634l-94 77l4 6l105 -4q18 33 18 108q0 62 -6.5 124t-6.5 67q0 4 0.5 8t2.5 8
l3.5 7t5 8t5.5 7.5t6.5 8t7 8t8 8.5t7.5 8h6q9 -56 41 -111l-36 -31l2 -75q0 -37 -10 -67l3 -2q76 116 150 116q44 0 71.5 -30.5t27.5 -74.5q0 -30 -17 -73q-22 -50 -67 -73q-65 -31 -162 -31q-52 0 -75 3zM101 714q194 5 230 58q-18 61 -76 61q-79 0 -154 -119z" />
    <glyph glyph-name="uniFB69" unicode="&#x679;" horiz-adv-x="451" arabic-form="medial" 
d="M0 128h22q61 0 111 23.5t61 64.5l29 108l69 50l6 -7q-22 -80 -22 -116q0 -57 33 -83q49 -40 124 -40h18v-128h-23q-160 0 -206 102h-4q-25 -49 -79 -75.5t-120 -26.5h-19q-37 0 -53.5 20.5t-16.5 46.5q0 23 17 42t53 19zM89 504l-94 77l4 6l105 -4q18 33 18 108
q0 62 -6.5 124t-6.5 67q0 4 0.5 8t2.5 8l3.5 7t5 8t5.5 7.5t6.5 8t7 8t8 8.5t7.5 8h6q9 -56 41 -111l-36 -31l2 -75q0 -37 -10 -67l3 -2q76 116 150 116q44 0 71.5 -30.5t27.5 -74.5q0 -30 -17 -73q-22 -50 -67 -73q-65 -31 -162 -31q-52 0 -75 3zM141 584q194 5 230 58
q-18 61 -76 61q-79 0 -154 -119z" />
    <glyph glyph-name="uniFB6A" unicode="&#x6a4;" horiz-adv-x="1318" arabic-form="isolated" 
d="M1158 253q-36 -4 -109 -4q-191 0 -240 108q-15 35 -15 72q0 119 75 197q65 67 129 67q117 0 191 -198q42 -111 42 -238q0 -99 -42 -148q-36 -23 -75 -40.5t-64.5 -25.5t-71.5 -21q-225 -62 -388 -62q-222 0 -343 77q-147 94 -147 271q0 131 59 242l40 -17
q-29 -87 -29 -152q0 -68 35.5 -126t96.5 -95q107 -64 318 -64q160 0 341 44q72 17 133 44q69 28 69 47q0 10 -5 22zM1142 368q-16 77 -62.5 135.5t-103.5 58.5q-47 0 -83.5 -29.5t-36.5 -59.5q0 -107 286 -105zM1155 852q-43 -61 -76 -92q-59 56 -117 104q37 52 79 95
q53 -42 114 -107zM962 839q-43 -61 -76 -92q-59 56 -117 104q37 52 79 95q53 -42 114 -107zM1016 1052q-43 -61 -76 -92q-59 56 -117 104q37 52 79 95q53 -42 114 -107z" />
    <glyph glyph-name="uniFB6B" unicode="&#x6a4;" horiz-adv-x="1462" arabic-form="final" 
d="M1134 54q-113 -43 -266.5 -69t-277.5 -26q-222 0 -343 77q-147 94 -147 271q0 131 59 242l40 -17q-29 -87 -29 -152q0 -68 35.5 -126t96.5 -95q107 -64 318 -64q187 0 368 44l-8 13q-35 59 -35 152q0 140 90 235q39 41 81.5 67t69.5 26t58.5 -29.5t58.5 -81.5
q38 -73 38 -142q0 -117 -67 -233q62 -18 156 -18h32v-128h-29q-78 0 -143.5 11t-155.5 43zM1134 178q52 13 102 54t50 72q0 42 -24 90q-46 90 -99 90q-55 0 -106 -53.5t-66 -113.5q25 -103 143 -139zM1335 812q-43 -61 -76 -92q-59 56 -117 104q37 52 79 95q53 -42 114 -107
zM1142 799q-43 -61 -76 -92q-59 56 -117 104q37 52 79 95q53 -42 114 -107zM1196 1012q-43 -61 -76 -92q-59 56 -117 104q37 52 79 95q53 -42 114 -107z" />
    <glyph glyph-name="uniFB6C" unicode="&#x6a4;" horiz-adv-x="574" arabic-form="initial" 
d="M0 128h84q151 0 218 20q48 14 83 38.5t35 44.5q0 15 -2 22q-36 -4 -113 -4q-191 0 -240 108q-15 35 -15 72q0 119 75 197q65 67 129 67q117 0 191 -198q42 -111 42 -238q0 -100 -49 -158q-46 -53 -133 -76t-224 -23h-81q-37 0 -53.5 20.5t-16.5 46.5q0 23 17 42t53 19z
M402 368q-16 76 -64 135t-106 59q-47 0 -83.5 -29.5t-36.5 -59.5q0 -107 290 -105zM406 852q-43 -61 -76 -92q-59 56 -117 104q37 52 79 95q53 -42 114 -107zM213 839q-43 -61 -76 -92q-59 56 -117 104q37 52 79 95q53 -42 114 -107zM267 1052q-43 -61 -76 -92
q-59 56 -117 104q37 52 79 95q53 -42 114 -107z" />
    <glyph glyph-name="uniFB6D" unicode="&#x6a4;" horiz-adv-x="660" arabic-form="medial" 
d="M0 128h17q55 0 161 24q-35 59 -35 152q0 141 90 235q38 41 80.5 67t70.5 26q27 0 58.5 -29t58.5 -82q38 -73 38 -142q0 -117 -67 -233q62 -18 156 -18h32v-128h-29q-146 0 -327 64q-181 -64 -286 -64h-18q-37 0 -53.5 20.5t-16.5 46.5q0 23 17 42t53 19zM326 184
q53 11 105.5 50.5t52.5 69.5q0 42 -24 90q-46 90 -99 90q-55 0 -106 -53.5t-66 -113.5q24 -99 137 -133zM536 812q-43 -61 -76 -92q-59 56 -117 104q37 52 79 95q53 -42 114 -107zM343 799q-43 -61 -76 -92q-59 56 -117 104q37 52 79 95q53 -42 114 -107zM397 1012
q-43 -61 -76 -92q-59 56 -117 104q37 52 79 95q53 -42 114 -107z" />
    <glyph glyph-name="uniFB6E" unicode="&#x6a6;" horiz-adv-x="1318" arabic-form="isolated" 
d="M1158 253q-36 -4 -109 -4q-191 0 -240 108q-15 35 -15 72q0 119 75 197q65 67 129 67q117 0 191 -198q42 -111 42 -238q0 -99 -42 -148q-36 -23 -75 -40.5t-64.5 -25.5t-71.5 -21q-225 -62 -388 -62q-222 0 -343 77q-147 94 -147 271q0 131 59 242l40 -17
q-29 -87 -29 -152q0 -68 35.5 -126t96.5 -95q107 -64 318 -64q160 0 341 44q72 17 133 44q69 28 69 47q0 10 -5 22zM1142 368q-16 77 -62.5 135.5t-103.5 58.5q-47 0 -83.5 -29.5t-36.5 -59.5q0 -107 286 -105zM970 846q-46 -63 -72 -86q-52 51 -110 98q37 51 74 89
q51 -39 108 -101zM1151 859q-37 -55 -71 -87q-53 50 -110 98q36 51 74 89q48 -38 107 -100zM958 1036q-41 -58 -71 -86q-66 61 -110 98q30 41 74 89q52 -40 107 -101zM1140 1048q-46 -63 -72 -86q-52 51 -110 98q39 53 75 89q50 -40 107 -101z" />
    <glyph glyph-name="uniFB6F" unicode="&#x6a6;" horiz-adv-x="1462" arabic-form="final" 
d="M1134 54q-113 -43 -266.5 -69t-277.5 -26q-222 0 -343 77q-147 94 -147 271q0 131 59 242l40 -17q-29 -87 -29 -152q0 -68 35.5 -126t96.5 -95q107 -64 318 -64q187 0 368 44l-8 13q-35 59 -35 152q0 140 90 235q39 41 81.5 67t69.5 26t58.5 -29.5t58.5 -81.5
q38 -73 38 -142q0 -117 -67 -233q62 -18 156 -18h32v-128h-29q-78 0 -143.5 11t-155.5 43zM1134 178q52 13 102 54t50 72q0 42 -24 90q-46 90 -99 90q-55 0 -106 -53.5t-66 -113.5q25 -103 143 -139zM1140 796q-46 -63 -72 -86q-52 51 -110 98q37 51 74 89q51 -39 108 -101z
M1321 809q-37 -55 -71 -87q-53 50 -110 98q36 51 74 89q48 -38 107 -100zM1128 986q-41 -58 -71 -86q-66 61 -110 98q30 41 74 89q52 -40 107 -101zM1310 998q-46 -63 -72 -86q-52 51 -110 98q39 53 75 89q50 -40 107 -101z" />
    <glyph glyph-name="uniFB70" unicode="&#x6a6;" horiz-adv-x="574" arabic-form="initial" 
d="M0 128h84q151 0 218 20q48 14 83 38.5t35 44.5q0 15 -2 22q-36 -4 -113 -4q-191 0 -240 108q-15 35 -15 72q0 119 75 197q65 67 129 67q117 0 191 -198q42 -111 42 -238q0 -100 -49 -158q-46 -53 -133 -76t-224 -23h-81q-37 0 -53.5 20.5t-16.5 46.5q0 23 17 42t53 19z
M402 368q-16 76 -64 135t-106 59q-47 0 -83.5 -29.5t-36.5 -59.5q0 -107 290 -105zM231 856q-46 -63 -72 -86q-52 51 -110 98q37 51 74 89q51 -39 108 -101zM412 869q-37 -55 -71 -87q-53 50 -110 98q36 51 74 89q48 -38 107 -100zM219 1046q-41 -58 -71 -86q-66 61 -110 98
q30 41 74 89q52 -40 107 -101zM401 1058q-46 -63 -72 -86q-52 51 -110 98q39 53 75 89q50 -40 107 -101z" />
    <glyph glyph-name="uniFB71" unicode="&#x6a6;" horiz-adv-x="660" arabic-form="medial" 
d="M0 128h17q55 0 161 24q-35 59 -35 152q0 141 90 235q38 41 80.5 67t70.5 26q27 0 58.5 -29t58.5 -82q38 -73 38 -142q0 -117 -67 -233q62 -18 156 -18h32v-128h-29q-146 0 -327 64q-181 -64 -286 -64h-18q-37 0 -53.5 20.5t-16.5 46.5q0 23 17 42t53 19zM326 184
q53 11 105.5 50.5t52.5 69.5q0 42 -24 90q-46 90 -99 90q-55 0 -106 -53.5t-66 -113.5q24 -99 137 -133zM341 806q-46 -63 -72 -86q-52 51 -110 98q37 51 74 89q51 -39 108 -101zM522 819q-37 -55 -71 -87q-53 50 -110 98q36 51 74 89q48 -38 107 -100zM329 996
q-41 -58 -71 -86q-66 61 -110 98q30 41 74 89q52 -40 107 -101zM511 1008q-46 -63 -72 -86q-52 51 -110 98q39 53 75 89q50 -40 107 -101z" />
    <glyph glyph-name="uniFB72" unicode="&#x684;" horiz-adv-x="953" arabic-form="isolated" 
d="M561 324l-1 3q-86 32 -147 44t-131 12q-83 0 -127 -50l20 -84l-28 -79l-11 -3l-58 158q6 82 66 131t151 49q113 0 328 -87q77 -31 171 -32l88 1l1 -2l-60 -101q-47 -5 -137 -28t-130 -38q-167 -62 -268.5 -149.5t-101.5 -183.5q0 -101 67 -176.5t179 -113.5t253 -38
q118 0 257 22l3 -10q-104 -86 -163 -119q-94 -18 -189 -18q-101 0 -187 25t-152.5 73.5t-104.5 127.5t-38 180q0 174 128.5 307t321.5 179zM651 -32q-42 -58 -76 -90q-58 53 -118 102q38 51 79 92q54 -40 115 -104zM671 -234q-46 -62 -76 -89q-63 57 -118 101q35 48 79 93
q55 -42 115 -105z" />
    <glyph glyph-name="uniFB73" unicode="&#x684;" horiz-adv-x="939" arabic-form="final" 
d="M561 324l-1 3q-86 32 -147 44t-131 12q-83 0 -127 -50l20 -84l-28 -79l-11 -3l-58 158q6 82 66 131t151 49q113 0 328 -87q82 -31 171 -32l88 1l1 -2l-60 -101q-46 -5 -134.5 -28t-132.5 -38q-172 -66 -271 -151t-99 -182q0 -101 67 -176.5t179 -113.5t253 -38
q118 0 257 22l3 -10q-104 -86 -163 -119q-94 -18 -189 -18q-101 0 -187 25t-152.5 73.5t-104.5 127.5t-38 180q0 174 128.5 307t321.5 179zM672 221l36 24l3 -1q5 -116 177 -116h51v-128h-55q-215 0 -215 165q0 28 3 56zM611 -42q-42 -58 -76 -90q-58 53 -118 102
q38 51 79 92q54 -40 115 -104zM631 -244q-46 -62 -76 -89q-63 57 -118 101q35 48 79 93q55 -42 115 -105z" />
    <glyph glyph-name="uniFB74" unicode="&#x684;" horiz-adv-x="935" arabic-form="initial" 
d="M0 128h61q233 0 534 181l1 4q-189 70 -314 70q-83 0 -127 -50l12 -50l-30 -90h-10l-49 132q6 82 66 131t151 49q113 0 328 -87q77 -31 171 -32l81 1l3 -2l-53 -105q-111 3 -173 -37l-167 -109q-206 -134 -433 -134h-52q-37 0 -53.5 20.5t-16.5 46.5q0 23 17 42t53 19z
M471 -192q-42 -58 -76 -90q-58 53 -118 102q38 51 79 92q54 -40 115 -104zM491 -394q-46 -62 -76 -89q-63 57 -118 101q35 48 79 93q55 -42 115 -105z" />
    <glyph glyph-name="uniFB75" unicode="&#x684;" horiz-adv-x="915" arabic-form="medial" 
d="M595 309l1 4q-189 70 -314 70q-83 0 -127 -50l12 -50l-30 -90h-10l-49 132q6 82 66 131t151 49q112 0 328 -86q83 -33 171 -33h87l2 -2l-62 -103q-109 0 -169 -38l-167 -109q-209 -134 -439 -134h-46q-37 0 -53.5 20.5t-16.5 46.5q0 23 17 42t53 19h61q233 0 534 181z
M672 221l36 24l3 -1q5 -116 177 -116h27v-128h-31q-215 0 -215 165q0 28 3 56zM471 -192q-42 -58 -76 -90q-58 53 -118 102q38 51 79 92q54 -40 115 -104zM491 -394q-46 -62 -76 -89q-63 57 -118 101q35 48 79 93q55 -42 115 -105z" />
    <glyph glyph-name="uniFB76" unicode="&#x683;" horiz-adv-x="953" arabic-form="isolated" 
d="M561 324l-1 3q-86 32 -147 44t-131 12q-83 0 -127 -50l20 -84l-28 -79l-11 -3l-58 158q6 82 66 131t151 49q114 0 328 -87q78 -31 171 -32l88 1l1 -2l-60 -101q-47 -5 -137 -28t-130 -38q-171 -64 -270.5 -150t-99.5 -183q0 -101 67 -176.5t179 -113.5t253 -38
q118 0 257 22l3 -10q-104 -86 -163 -119q-94 -18 -189 -18q-101 0 -187 25t-152.5 73.5t-104.5 127.5t-38 180q0 174 128.5 307t321.5 179zM591 -127q-43 -61 -76 -92q-59 56 -117 104q37 52 79 95q53 -42 114 -107zM784 -114q-43 -61 -76 -92q-59 56 -117 104q37 52 79 95
q53 -42 114 -107z" />
    <glyph glyph-name="uniFB77" unicode="&#x683;" horiz-adv-x="939" arabic-form="final" 
d="M561 324l-1 3q-86 32 -147 44t-131 12q-83 0 -127 -50l20 -84l-28 -79l-11 -3l-58 158q6 82 66 131t151 49q113 0 328 -87q82 -31 171 -32l88 1l1 -2l-60 -101q-46 -5 -134.5 -28t-132.5 -38q-172 -66 -271 -151t-99 -182q0 -101 67 -176.5t179 -113.5t253 -38
q118 0 257 22l3 -10q-104 -86 -163 -119q-94 -18 -189 -18q-101 0 -187 25t-152.5 73.5t-104.5 127.5t-38 180q0 174 128.5 307t321.5 179zM672 221l36 24l3 -1q5 -116 177 -116h51v-128h-55q-215 0 -215 165q0 28 3 56zM521 -137q-43 -61 -76 -92q-59 56 -117 104
q37 52 79 95q53 -42 114 -107zM714 -124q-43 -61 -76 -92q-59 56 -117 104q37 52 79 95q53 -42 114 -107z" />
    <glyph glyph-name="uniFB78" unicode="&#x683;" horiz-adv-x="935" arabic-form="initial" 
d="M0 128h61q233 0 534 181l1 4q-189 70 -314 70q-83 0 -127 -50l12 -50l-30 -90h-10l-49 132q6 82 66 131t151 49q113 0 328 -87q77 -31 171 -32l81 1l3 -2l-53 -105q-111 3 -173 -37l-167 -109q-206 -134 -433 -134h-52q-37 0 -53.5 20.5t-16.5 46.5q0 23 17 42t53 19z
M401 -257q-43 -61 -76 -92q-59 56 -117 104q37 52 79 95q53 -42 114 -107zM594 -244q-43 -61 -76 -92q-59 56 -117 104q37 52 79 95q53 -42 114 -107z" />
    <glyph glyph-name="uniFB79" unicode="&#x683;" horiz-adv-x="915" arabic-form="medial" 
d="M595 309l1 4q-189 70 -314 70q-83 0 -127 -50l12 -50l-30 -90h-10l-49 132q6 82 66 131t151 49q112 0 328 -86q83 -33 171 -33h87l2 -2l-62 -103q-109 0 -169 -38l-167 -109q-209 -134 -439 -134h-46q-37 0 -53.5 20.5t-16.5 46.5q0 23 17 42t53 19h61q233 0 534 181z
M672 221l36 24l3 -1q5 -116 177 -116h27v-128h-31q-215 0 -215 165q0 28 3 56zM401 -257q-43 -61 -76 -92q-59 56 -117 104q37 52 79 95q53 -42 114 -107zM594 -244q-43 -61 -76 -92q-59 56 -117 104q37 52 79 95q53 -42 114 -107z" />
    <glyph glyph-name="uniFB7A" unicode="&#x686;" horiz-adv-x="953" arabic-form="isolated" 
d="M561 324l-1 3q-86 32 -147 44t-131 12q-83 0 -127 -50l20 -84l-28 -79l-11 -3l-58 158q6 82 66 131t151 49q114 0 328 -87q78 -31 171 -32l88 1l1 -2l-60 -101q-47 -5 -137 -28t-130 -38q-171 -64 -270.5 -150t-99.5 -183q0 -101 67 -176.5t179 -113.5t253 -38
q118 0 257 22l3 -10q-104 -86 -163 -119q-94 -18 -189 -18q-101 0 -187 25t-152.5 73.5t-104.5 127.5t-38 180q0 174 128.5 307t321.5 179zM764 -39q-43 -61 -76 -92q-59 56 -117 104q37 52 79 95q53 -42 114 -107zM571 -52q-43 -61 -76 -92q-59 56 -117 104q37 52 79 95
q53 -42 114 -107zM711 -251q-43 -61 -76 -92q-59 56 -117 104q37 52 79 95q53 -42 114 -107z" />
    <glyph glyph-name="uniFB7B" unicode="&#x686;" horiz-adv-x="939" arabic-form="final" 
d="M561 324l-1 3q-86 32 -147 44t-131 12q-83 0 -127 -50l20 -84l-28 -79l-11 -3l-58 158q6 82 66 131t151 49q113 0 328 -87q82 -31 171 -32l88 1l1 -2l-60 -101q-46 -5 -134.5 -28t-132.5 -38q-172 -66 -271 -151t-99 -182q0 -101 67 -176.5t179 -113.5t253 -38
q118 0 257 22l3 -10q-104 -86 -163 -119q-94 -18 -189 -18q-101 0 -187 25t-152.5 73.5t-104.5 127.5t-38 180q0 174 128.5 307t321.5 179zM672 221l36 24l3 -1q5 -116 177 -116h51v-128h-55q-215 0 -215 165q0 28 3 56zM640 -262q-46 -63 -72 -86q-52 51 -110 98
q37 51 74 89q51 -39 108 -101zM500 -74q-41 -58 -71 -86q-66 61 -110 98q30 41 74 89q52 -40 107 -101zM690 -62q-46 -63 -72 -86q-52 51 -110 98q39 53 75 89q50 -40 107 -101z" />
    <glyph glyph-name="uniFB7C" unicode="&#x686;" horiz-adv-x="935" arabic-form="initial" 
d="M0 128h61q233 0 534 181l1 4q-189 70 -314 70q-83 0 -127 -50l12 -50l-30 -90h-10l-49 132q6 82 66 131t151 49q113 0 328 -87q77 -31 171 -32l81 1l3 -2l-53 -105q-111 3 -173 -37l-167 -109q-206 -134 -433 -134h-52q-37 0 -53.5 20.5t-16.5 46.5q0 23 17 42t53 19z
M594 -199q-43 -61 -76 -92q-59 56 -117 104q37 52 79 95q53 -42 114 -107zM401 -212q-43 -61 -76 -92q-59 56 -117 104q37 52 79 95q53 -42 114 -107zM541 -411q-43 -61 -76 -92q-59 56 -117 104q37 52 79 95q53 -42 114 -107z" />
    <glyph glyph-name="uniFB7D" unicode="&#x686;" horiz-adv-x="915" arabic-form="medial" 
d="M595 309l1 4q-189 70 -314 70q-83 0 -127 -50l12 -50l-30 -90h-10l-49 132q6 82 66 131t151 49q112 0 328 -86q83 -33 171 -33h87l2 -2l-62 -103q-109 0 -169 -38l-167 -109q-209 -134 -439 -134h-46q-37 0 -53.5 20.5t-16.5 46.5q0 23 17 42t53 19h61q233 0 534 181z
M672 221l36 24l3 -1q5 -116 177 -116h27v-128h-31q-215 0 -215 165q0 28 3 56zM594 -199q-43 -61 -76 -92q-59 56 -117 104q37 52 79 95q53 -42 114 -107zM401 -212q-43 -61 -76 -92q-59 56 -117 104q37 52 79 95q53 -42 114 -107zM541 -411q-43 -61 -76 -92
q-59 56 -117 104q37 52 79 95q53 -42 114 -107z" />
    <glyph glyph-name="uniFB7E" unicode="&#x687;" horiz-adv-x="953" arabic-form="isolated" 
d="M561 324l-1 3q-86 32 -147 44t-131 12q-83 0 -127 -50l20 -84l-28 -79l-11 -3l-58 158q6 82 66 131t151 49q113 0 328 -87q77 -31 171 -32l88 1l1 -2l-60 -101q-47 -5 -137 -28t-130 -38q-167 -62 -268.5 -149.5t-101.5 -183.5q0 -101 67 -176.5t179 -113.5t253 -38
q118 0 257 22l3 -10q-104 -86 -163 -119q-94 -18 -189 -18q-101 0 -187 25t-152.5 73.5t-104.5 127.5t-38 180q0 174 128.5 307t321.5 179zM567 -233q-46 -63 -72 -86q-52 51 -110 98q37 51 74 89q51 -39 108 -101zM752 -220q-37 -55 -71 -87q-53 50 -110 98q36 51 74 89
q48 -38 107 -100zM555 -43q-41 -58 -71 -86q-66 61 -110 98q30 41 74 89q52 -40 107 -101zM741 -31q-46 -63 -72 -86q-52 51 -110 98q39 53 75 89q50 -40 107 -101z" />
    <glyph glyph-name="uniFB7F" unicode="&#x687;" horiz-adv-x="939" arabic-form="final" 
d="M561 324l-1 3q-86 32 -147 44t-131 12q-83 0 -127 -50l20 -84l-28 -79l-11 -3l-58 158q6 82 66 131t151 49q113 0 328 -87q82 -31 171 -32l88 1l1 -2l-60 -101q-46 -5 -134.5 -28t-132.5 -38q-172 -66 -271 -151t-99 -182q0 -101 67 -176.5t179 -113.5t253 -38
q118 0 257 22l3 -10q-104 -86 -163 -119q-94 -18 -189 -18q-101 0 -187 25t-152.5 73.5t-104.5 127.5t-38 180q0 174 128.5 307t321.5 179zM672 221l36 24l3 -1q5 -116 177 -116h51v-128h-55q-215 0 -215 165q0 28 3 56zM518 -246q-41 -58 -71 -85q-40 40 -108 97
q43 56 73 88q50 -40 106 -100zM705 -233q-37 -55 -70 -86q-67 61 -109 97q37 51 73 87q41 -31 106 -98zM507 -57q-42 -58 -70 -85q-67 61 -109 97q30 41 73 88q52 -40 106 -100zM694 -45q-44 -61 -71 -85q-40 40 -108 97q34 48 74 88q56 -45 105 -100z" />
    <glyph glyph-name="uniFB80" unicode="&#x687;" horiz-adv-x="935" arabic-form="initial" 
d="M0 128h61q233 0 534 181l1 4q-189 70 -314 70q-83 0 -127 -50l12 -50l-30 -90h-10l-49 132q6 82 66 131t151 49q113 0 328 -87q77 -31 171 -32l81 1l3 -2l-53 -105q-111 3 -173 -37l-167 -109q-206 -134 -433 -134h-52q-37 0 -53.5 20.5t-16.5 46.5q0 23 17 42t53 19z
M410 -395q-46 -63 -72 -86q-52 51 -110 98q37 51 74 89q51 -39 108 -101zM594 -382q-37 -55 -71 -87q-53 50 -110 98q36 51 74 89q48 -38 107 -100zM398 -205q-41 -58 -71 -86q-66 61 -110 98q30 41 74 89q52 -40 107 -101zM583 -193q-46 -63 -72 -86q-52 51 -110 98
q39 53 75 89q50 -40 107 -101z" />
    <glyph glyph-name="uniFB81" unicode="&#x687;" horiz-adv-x="915" arabic-form="medial" 
d="M595 309l1 4q-189 70 -314 70q-83 0 -127 -50l12 -50l-30 -90h-10l-49 132q6 82 66 131t151 49q112 0 328 -86q83 -33 171 -33h87l2 -2l-62 -103q-109 0 -169 -38l-167 -109q-209 -134 -439 -134h-46q-37 0 -53.5 20.5t-16.5 46.5q0 23 17 42t53 19h61q233 0 534 181z
M672 221l36 24l3 -1q5 -116 177 -116h27v-128h-31q-215 0 -215 165q0 28 3 56zM410 -395q-46 -63 -72 -86q-52 51 -110 98q37 51 74 89q51 -39 108 -101zM594 -382q-37 -55 -71 -87q-53 50 -110 98q36 51 74 89q48 -38 107 -100zM398 -205q-41 -58 -71 -86q-66 61 -110 98
q30 41 74 89q52 -40 107 -101zM583 -193q-46 -63 -72 -86q-52 51 -110 98q39 53 75 89q50 -40 107 -101z" />
    <glyph glyph-name="uniFB82" unicode="&#x68d;" horiz-adv-x="689" arabic-form="isolated" 
d="M327 -307q-43 -61 -76 -92q-59 56 -117 104q37 52 79 95q53 -42 114 -107zM520 -294q-43 -61 -76 -92q-59 56 -117 104q37 52 79 95q53 -42 114 -107zM100 272h39q5 -154 164 -154q101 0 217 65q20 11 20 24q0 86 -94 190q-84 90 -204 151q-32 16 -32 37q0 32 51 114l8 1
q143 -88 239 -207q99 -123 99 -237q0 -88 -42 -175q-156 -93 -278 -93q-89 0 -140.5 52t-51.5 159q0 41 5 73z" />
    <glyph glyph-name="uniFB83" unicode="&#x68d;" horiz-adv-x="770" arabic-form="final" 
d="M770 128v-128h-19q-153 0 -204 163h-5q-13 -60 -72 -96q-111 -67 -201 -67q-84 0 -129 48.5t-45 136.5q0 36 3 74l39 3q6 -134 141 -134q76 0 163 50q28 16 46.5 36.5t18.5 38.5q0 70 -83 372q54 82 71 103l6 -4q47 -181 95 -445q13 -72 56.5 -111.5t101.5 -39.5h17z
M318 -307q-43 -61 -76 -92q-59 56 -117 104q37 52 79 95q53 -42 114 -107zM511 -294q-43 -61 -76 -92q-59 56 -117 104q37 52 79 95q53 -42 114 -107z" />
    <glyph glyph-name="uniFB84" unicode="&#x68c;" horiz-adv-x="689" arabic-form="isolated" 
d="M437 932q-43 -61 -76 -92q-59 56 -117 104q37 52 79 95q53 -42 114 -107zM244 919q-43 -61 -76 -92q-59 56 -117 104q37 52 79 95q53 -42 114 -107zM100 272h39q5 -154 164 -154q101 0 217 65q20 11 20 24q0 86 -94 190q-84 90 -204 151q-32 16 -32 37q0 32 51 114l8 1
q143 -88 239 -207q99 -123 99 -237q0 -88 -42 -175q-156 -93 -278 -93q-89 0 -140.5 52t-51.5 159q0 41 5 73z" />
    <glyph glyph-name="uniFB85" unicode="&#x68c;" horiz-adv-x="770" arabic-form="final" 
d="M770 128v-128h-19q-153 0 -204 163h-5q-13 -60 -72 -96q-111 -67 -201 -67q-84 0 -129 48.5t-45 136.5q0 36 3 74l39 3q6 -134 141 -134q76 0 163 50q28 16 46.5 36.5t18.5 38.5q0 70 -83 372q54 82 71 103l6 -4q47 -181 95 -445q13 -72 56.5 -111.5t101.5 -39.5h17z
M608 932q-43 -61 -76 -92q-59 56 -117 104q37 52 79 95q53 -42 114 -107zM415 919q-43 -61 -76 -92q-59 56 -117 104q37 52 79 95q53 -42 114 -107z" />
    <glyph glyph-name="uniFB86" unicode="&#x68e;" horiz-adv-x="689" arabic-form="isolated" 
d="M244 879q-43 -61 -76 -92q-59 56 -117 104q37 52 79 95q53 -42 114 -107zM298 1092q-43 -61 -76 -92q-59 56 -117 104q37 52 79 95q53 -42 114 -107zM437 892q-43 -61 -76 -92q-59 56 -117 104q37 52 79 95q53 -42 114 -107zM100 272h39q5 -154 164 -154q101 0 217 65
q20 11 20 24q0 86 -94 190q-84 90 -204 151q-32 16 -32 37q0 32 51 114l8 1q143 -88 239 -207q99 -123 99 -237q0 -88 -42 -175q-156 -93 -278 -93q-89 0 -140.5 52t-51.5 159q0 41 5 73z" />
    <glyph glyph-name="uniFB87" unicode="&#x68e;" horiz-adv-x="770" arabic-form="final" 
d="M770 128v-128h-19q-153 0 -204 163h-5q-13 -60 -72 -96q-111 -67 -201 -67q-84 0 -129 48.5t-45 136.5q0 36 3 74l39 3q6 -134 141 -134q76 0 163 50q28 16 46.5 36.5t18.5 38.5q0 70 -83 372q54 82 71 103l6 -4q47 -181 95 -445q13 -72 56.5 -111.5t101.5 -39.5h17z
M425 889q-43 -61 -76 -92q-59 56 -117 104q37 52 79 95q53 -42 114 -107zM479 1102q-43 -61 -76 -92q-59 56 -117 104q37 52 79 95q53 -42 114 -107zM618 902q-43 -61 -76 -92q-59 56 -117 104q37 52 79 95q53 -42 114 -107z" />
    <glyph glyph-name="uniFB88" unicode="&#x688;" horiz-adv-x="689" arabic-form="isolated" 
d="M152 827l-94 77l4 6l105 -4q18 33 18 108q0 62 -6.5 124t-6.5 67q0 4 0.5 8t2.5 8l3.5 7t5 8t5.5 7.5t6.5 8t7 8t8 8.5t7.5 8h6q9 -56 41 -111l-36 -31l2 -75q0 -37 -10 -67l3 -2q76 116 150 116q44 0 71.5 -30.5t27.5 -74.5q0 -30 -17 -73q-22 -50 -67 -73
q-65 -31 -162 -31q-52 0 -75 3zM204 907q194 5 230 58q-18 61 -76 61q-79 0 -154 -119zM100 272h39q5 -154 164 -154q101 0 217 65q20 11 20 24q0 86 -94 190q-84 90 -204 151q-32 16 -32 37q0 32 51 114l8 1q143 -88 239 -207q99 -123 99 -237q0 -88 -42 -175
q-156 -93 -278 -93q-89 0 -140.5 52t-51.5 159q0 41 5 73z" />
    <glyph glyph-name="uniFB89" unicode="&#x688;" horiz-adv-x="770" arabic-form="final" 
d="M770 128v-128h-19q-153 0 -204 163h-5q-13 -60 -72 -96q-111 -67 -201 -67q-84 0 -129 48.5t-45 136.5q0 36 3 74l39 3q6 -134 141 -134q76 0 163 50q28 16 46.5 36.5t18.5 38.5q0 70 -83 372q54 82 71 103l6 -4q47 -181 95 -445q13 -72 56.5 -111.5t101.5 -39.5h17z
M293 837l-94 77l4 6l105 -4q18 33 18 108q0 62 -6.5 124t-6.5 67q0 4 0.5 8t2.5 8l3.5 7t5 8t5.5 7.5t6.5 8t7 8t8 8.5t7.5 8h6q9 -56 41 -111l-36 -31l2 -75q0 -37 -10 -67l3 -2q76 116 150 116q44 0 71.5 -30.5t27.5 -74.5q0 -30 -17 -73q-22 -50 -67 -73
q-65 -31 -162 -31q-52 0 -75 3zM345 917q194 5 230 58q-18 61 -76 61q-79 0 -154 -119z" />
    <glyph glyph-name="uniFB8A" unicode="&#x698;" horiz-adv-x="631" arabic-form="isolated" 
d="M422 517l6 -1l71 -135q50 -96 50 -190v-110q0 -126 -126 -278q-87 -91 -165 -91q-106 0 -257 77l11 34q56 -18 111 -18q103 1 201.5 78.5t149.5 191.5q11 23 11 44q0 13 -14 53q-53 118 -120 220q37 70 71 125zM368 699q-43 -61 -76 -92q-59 56 -117 104q37 52 79 95
q53 -42 114 -107zM422 912q-43 -61 -76 -92q-59 56 -117 104q37 52 79 95q53 -42 114 -107zM561 712q-43 -61 -76 -92q-59 56 -117 104q37 52 79 95q53 -42 114 -107z" />
    <glyph glyph-name="uniFB8B" unicode="&#x698;" horiz-adv-x="656" arabic-form="final" 
d="M406 343l7 1q47 -113 95.5 -164.5t129.5 -51.5h18v-128h-21q-66 0 -101 32h-4q2 -24 2 -35q0 -84 -40 -155q-57 -100 -119 -149.5t-120 -49.5q-103 0 -250 78l15 34q46 -22 115 -22q66 0 139.5 43.5t127.5 114t65 142.5q-9 21 -27 45q-48 68 -87 149q26 59 55 116z
M348 549q-43 -61 -76 -92q-59 56 -117 104q37 52 79 95q53 -42 114 -107zM402 762q-43 -61 -76 -92q-59 56 -117 104q37 52 79 95q53 -42 114 -107zM541 562q-43 -61 -76 -92q-59 56 -117 104q37 52 79 95q53 -42 114 -107z" />
    <glyph glyph-name="uniFB8C" unicode="&#x691;" horiz-adv-x="631" arabic-form="isolated" 
d="M422 517l6 -1l71 -135q50 -96 50 -190v-110q0 -126 -126 -278q-87 -91 -165 -91q-106 0 -257 77l11 34q56 -18 111 -18q103 1 201.5 78.5t149.5 191.5q11 23 11 44q0 13 -14 53q-53 118 -120 220q37 70 71 125zM216 647l-94 77l4 6l105 -4q18 33 18 108q0 62 -6.5 124
t-6.5 67q0 4 0.5 8t2.5 8l3.5 7t5 8t5.5 7.5t6.5 8t7 8t8 8.5t7.5 8h6q9 -56 41 -111l-36 -31l2 -75q0 -37 -10 -67l3 -2q76 116 150 116q44 0 71.5 -30.5t27.5 -74.5q0 -31 -17 -73q-22 -50 -67 -73q-65 -31 -162 -31q-52 0 -75 3zM268 727q194 5 230 58q-18 61 -76 61
q-79 0 -154 -119z" />
    <glyph glyph-name="uniFB8D" unicode="&#x691;" horiz-adv-x="656" arabic-form="final" 
d="M406 343l7 1q47 -113 95.5 -164.5t129.5 -51.5h18v-128h-21q-66 0 -101 32h-4q2 -24 2 -35q0 -84 -40 -155q-57 -100 -119 -149.5t-120 -49.5q-103 0 -250 78l15 34q46 -22 115 -22q66 0 139.5 43.5t127.5 114t65 142.5q-9 21 -27 45q-48 68 -87 149q26 59 55 116z
M206 507l-94 77l4 6l105 -4q18 33 18 108q0 62 -6.5 124t-6.5 67q0 4 0.5 8t2.5 8l3.5 7t5 8t5.5 7.5t6.5 8t7 8t8 8.5t7.5 8h6q9 -56 41 -111l-36 -31l2 -75q0 -37 -10 -67l3 -2q76 116 150 116q44 0 71.5 -30.5t27.5 -74.5q0 -30 -17 -73q-22 -50 -67 -73
q-65 -31 -162 -31q-52 0 -75 3zM258 587q194 5 230 58q-18 61 -76 61q-79 0 -154 -119z" />
    <glyph glyph-name="uniFB8E" unicode="&#x6a9;" horiz-adv-x="1220" arabic-form="isolated" 
d="M946 303q-17 35 -51 81q-85 115 -301 283q-36 27 -36 92q0 25 23 64q13 29 75 61q138 70 538 200l7 -8q-26 -49 -75 -123q-79 -20 -161 -49q-149 -52 -329 -131v-3l163 -63l-24 -50q126 -102 193.5 -194t67.5 -185l-1 -15q-18 -127 -70 -173q-66 -49 -190 -75t-269 -26
q-406 0 -406 322q0 90 35 178l40 -13q-15 -51 -15 -105q0 -120 94.5 -184.5t273.5 -64.5q129 0 251 25t185 80q0 37 -18 76z" />
    <glyph glyph-name="uniFB8F" unicode="&#x6a9;" horiz-adv-x="1405" arabic-form="final" 
d="M1405 128v-128h-20q-84 0 -140.5 40t-118.5 122q-67 88 -88 111h-5q-26 -126 -79 -170q-70 -51 -190 -82.5t-258 -31.5q-406 0 -406 322q0 90 35 178l40 -13q-15 -51 -15 -105q0 -120 94.5 -184.5t273.5 -64.5q124 0 249 31t186 91q0 22 -17 59q-50 107 -247 304
q-48 50 -63 68q-7 40 -7 55q0 38 27 86q11 20 36 37q126 81 615 234l4 -6q-31 -61 -77 -123q-79 -20 -229 -74q-216 -81 -303 -127v-3q55 -35 154 -78l-30 -50q135 -122 369 -396q44 -52 89.5 -77t103.5 -25h17z" />
    <glyph glyph-name="uniFB90" unicode="&#x6a9;" horiz-adv-x="641" arabic-form="initial" 
d="M615 1087l7 -8q-26 -49 -75 -123q-79 -20 -161 -49q-149 -52 -329 -131v-6l163 -63l-24 -50q257 -209 257 -357q0 -141 -64 -207q-105 -93 -349 -93h-40q-37 0 -53.5 20.5t-16.5 46.5q0 23 17 42t53 19h63q183 0 267 52q55 34 55 54q0 56 -69 150q-85 115 -301 283
q-36 27 -36 92q0 28 23 67q20 33 75 61q138 70 538 200z" />
    <glyph glyph-name="uniFB91" unicode="&#x6a9;" horiz-adv-x="770" arabic-form="medial" 
d="M770 128v-128h-20q-84 0 -140.5 40t-118.5 122q-67 88 -88 111h-4q-2 -273 -372 -273h-27q-37 0 -53.5 20.5t-16.5 46.5q0 23 17 42t53 19h40q156 0 242 58q49 32 49 49q0 24 -20 68q-50 107 -247 304q-48 50 -63 68q-7 40 -7 55q0 38 27 86q11 20 36 37q126 81 615 234
l4 -6q-30 -61 -77 -123q-79 -20 -229 -74q-216 -81 -303 -127v-3q55 -35 154 -78l-30 -50q135 -122 369 -396q44 -52 89.5 -77t103.5 -25h17z" />
    <glyph glyph-name="uniFB92" unicode="&#x6af;" horiz-adv-x="1220" arabic-form="isolated" 
d="M964 227q6 64 -79 160q-60 69 -298 247q-29 22 -29 85q0 25 23 64q11 25 75 58q138 70 538 200l4 -4q-40 -74 -72 -123q-79 -20 -161 -49q-157 -55 -333 -132v-7l167 -47l-24 -49q256 -190 256 -335q0 -57 -20 -121t-46 -84q-66 -49 -190 -75t-269 -26q-406 0 -406 322
q0 90 35 178l40 -13q-15 -51 -15 -105q0 -120 94.5 -184.5t273.5 -64.5q129 0 251 25t185 80zM612 902l-5 2q20 53 26 64q202 96 521 191l2 -2l-34 -59q-342 -109 -510 -196z" />
    <glyph glyph-name="uniFB93" unicode="&#x6af;" horiz-adv-x="1402" arabic-form="final" 
d="M684 887l-5 2q7 30 24 65q189 92 548 199l1 -3l-37 -61q-338 -105 -531 -202zM963 244q-2 17 -20 59q-12 26 -29 51t-43.5 54t-45.5 48.5t-58.5 58t-60.5 59.5q-11 12 -36 36t-33 33q-5 28 -5 46q0 38 27 86q7 12 36 32q125 81 609 232l3 -4q-37 -73 -71 -119
q-75 -19 -228 -74q-223 -84 -307 -128v-2q29 -17 162 -69l-31 -53q201 -176 359 -360q87 -102 194 -102h17v-128h-20q-84 0 -140.5 40t-118.5 122q-67 88 -88 111h-2q-26 -126 -79 -170q-70 -51 -190 -82.5t-258 -31.5q-406 0 -406 322q0 90 35 178l40 -13q-15 -51 -15 -105
q0 -120 94.5 -184.5t273.5 -64.5q124 0 249 31t186 91z" />
    <glyph glyph-name="uniFB94" unicode="&#x6af;" horiz-adv-x="641" arabic-form="initial" 
d="M615 1041l4 -4q-40 -74 -72 -123q-79 -20 -161 -49q-157 -55 -333 -132v-7l167 -47l-24 -49q129 -96 192.5 -175t63.5 -155q0 -142 -63 -207q-105 -93 -349 -93h-40q-37 0 -53.5 20.5t-16.5 46.5q0 23 17 42t53 19h63q183 0 267 52q55 34 55 54q0 66 -76 153
q-35 39 -104.5 95.5t-196.5 151.5q-29 22 -29 85q0 25 23 64q11 25 75 58q138 70 538 200zM33 902l-5 2q20 53 26 64q202 96 521 191l2 -2l-34 -59q-342 -109 -510 -196z" />
    <glyph glyph-name="uniFB95" unicode="&#x6af;" horiz-adv-x="770" arabic-form="medial" 
d="M770 128v-128h-20q-84 0 -140.5 40t-118.5 122q-67 88 -88 111h-4q-2 -273 -372 -273h-27q-37 0 -53.5 20.5t-16.5 46.5q0 23 17 42t53 19h40q156 0 242 58q49 32 49 49q0 24 -20 68q-12 26 -29 51t-43.5 54t-45.5 48.5t-58.5 58t-60.5 59.5q-11 12 -36 36t-33 33
q-5 28 -5 46q0 38 27 86q7 12 36 32q125 81 609 232l3 -4q-37 -73 -71 -119q-75 -19 -228 -74q-223 -84 -307 -128v-2q29 -17 162 -69l-31 -53q201 -176 359 -360q87 -102 194 -102h17zM52 887l-5 2q7 30 24 65q189 92 548 199l1 -3l-37 -61q-338 -105 -531 -202z" />
    <glyph glyph-name="uniFB96" unicode="&#x6b3;" horiz-adv-x="1220" arabic-form="isolated" 
d="M964 227q6 64 -79 160q-60 69 -298 247q-29 22 -29 85q0 25 23 64q11 25 75 58q138 70 538 200l4 -4q-40 -74 -72 -123q-79 -20 -161 -49q-157 -55 -333 -132v-7l167 -47l-24 -49q256 -190 256 -335q0 -57 -20 -121t-46 -84q-66 -49 -190 -75t-269 -26q-406 0 -406 322
q0 90 35 178l40 -13q-15 -51 -15 -105q0 -120 94.5 -184.5t273.5 -64.5q129 0 251 25t185 80zM612 902l-5 2q20 53 26 64q202 96 521 191l2 -2l-34 -59q-342 -109 -510 -196zM701 -232q-42 -58 -76 -90q-58 53 -118 102q38 51 79 92q54 -40 115 -104zM721 -434
q-46 -62 -76 -89q-63 57 -118 101q35 48 79 93q55 -42 115 -105z" />
    <glyph glyph-name="uniFB97" unicode="&#x6b3;" horiz-adv-x="1402" arabic-form="final" 
d="M684 887l-5 2q7 30 24 65q189 92 548 199l1 -3l-37 -61q-338 -105 -531 -202zM963 244q-2 17 -20 59q-12 26 -29 51t-43.5 54t-45.5 48.5t-58.5 58t-60.5 59.5q-11 12 -36 36t-33 33q-5 28 -5 46q0 38 27 86q7 12 36 32q125 81 609 232l3 -4q-37 -73 -71 -119
q-75 -19 -228 -74q-223 -84 -307 -128v-2q29 -17 162 -69l-31 -53q201 -176 359 -360q87 -102 194 -102h17v-128h-20q-84 0 -140.5 40t-118.5 122q-67 88 -88 111h-2q-26 -126 -79 -170q-70 -51 -190 -82.5t-258 -31.5q-406 0 -406 322q0 90 35 178l40 -13q-15 -51 -15 -105
q0 -120 94.5 -184.5t273.5 -64.5q124 0 249 31t186 91zM701 -232q-42 -58 -76 -90q-58 53 -118 102q38 51 79 92q54 -40 115 -104zM721 -434q-46 -62 -76 -89q-63 57 -118 101q35 48 79 93q55 -42 115 -105z" />
    <glyph glyph-name="uniFB98" unicode="&#x6b3;" horiz-adv-x="641" arabic-form="initial" 
d="M615 1041l4 -4q-40 -74 -72 -123q-79 -20 -161 -49q-157 -55 -333 -132v-7l167 -47l-24 -49q129 -96 192.5 -175t63.5 -155q0 -142 -63 -207q-105 -93 -349 -93h-40q-37 0 -53.5 20.5t-16.5 46.5q0 23 17 42t53 19h63q183 0 267 52q55 34 55 54q0 66 -76 153
q-35 39 -104.5 95.5t-196.5 151.5q-29 22 -29 85q0 25 23 64q11 25 75 58q138 70 538 200zM33 902l-5 2q20 53 26 64q202 96 521 191l2 -2l-34 -59q-342 -109 -510 -196zM311 -232q-42 -58 -76 -90q-58 53 -118 102q38 51 79 92q54 -40 115 -104zM331 -434q-46 -62 -76 -89
q-63 57 -118 101q35 48 79 93q55 -42 115 -105z" />
    <glyph glyph-name="uniFB99" unicode="&#x6b3;" horiz-adv-x="770" arabic-form="medial" 
d="M770 128v-128h-20q-84 0 -140.5 40t-118.5 122q-67 88 -88 111h-4q-2 -273 -372 -273h-27q-37 0 -53.5 20.5t-16.5 46.5q0 23 17 42t53 19h40q156 0 242 58q49 32 49 49q0 24 -20 68q-12 26 -29 51t-43.5 54t-45.5 48.5t-58.5 58t-60.5 59.5q-11 12 -36 36t-33 33
q-5 28 -5 46q0 38 27 86q7 12 36 32q125 81 609 232l3 -4q-37 -73 -71 -119q-75 -19 -228 -74q-223 -84 -307 -128v-2q29 -17 162 -69l-31 -53q201 -176 359 -360q87 -102 194 -102h17zM52 887l-5 2q7 30 24 65q189 92 548 199l1 -3l-37 -61q-338 -105 -531 -202zM431 -232
q-42 -58 -76 -90q-58 53 -118 102q38 51 79 92q54 -40 115 -104zM451 -434q-46 -62 -76 -89q-63 57 -118 101q35 48 79 93q55 -42 115 -105z" />
    </font>
</defs>
</svg>
